Loading...
Error

Адмирал / Michiel de Ruyter (Роэль Рейн) [2015 г., боевик, биография, исторический, HDRip] DVO

Статистика раздачи
Размер:  2,05 GB   |    Зарегистрирован:  1 год 4 месяца   |    Скачан:  60 раз

Полного источника не было: 5 дней

Сидов:  0  |  0 KB/s  ]   Личеров:  0  |  0 KB/s  ]

* - сиды/пиры с внешних источников

   
 
Автор Сообщение

makkol Пол:Муж

14-Июл-2015 23:14

Адмирал / Michiel de Ruyter


Год выпуска: 2015
Жанр: боевик, биография, исторический
Производство: Нидерланды [Farmhouse Film & TV, Ciné Cri De Coeur, AVROTROS]
Режиссер: Роэль Рейн
В ролях: Франк Ламерс, Барри Атсма, Рёланд Фернхут, Эгберт Ян, Вебер Тиго, Гернандт Дерек де Линт, Хайо Брюинс, Жуль Кройсет
Сюжет фильма:
Михил Рюйтер был одним из самых главных новаторов в боевой технике. Он стал героем голландского флота.
В то время как Голландию, находившуюся на грани гражданской войны, атаковали со всех сторон, лишь один человек пытался бороться за интересы страны — Михаил Рюйтер. Но в глазах власть имущих его успехи делали его слишком популярным, и Рюйтера отправили на смертельно опасное задание…

  • Мировая премьера: 26 января 2015


Качество видео: HDRip

Продолжительность: 02:31:53
Формат: AVI
Видео: XviD, 720x304, 24.000 fps, 1733 kbps
Аудио: русский, любительский двухголосый закадровый (Lucky Strike), AC3 2.0, 48 kHz, 192 kbps

Код:

Общее
Полное имя                               : Michiel.De Ruyter.avi
Формат                                   : AVI
Формат/Информация                        : Audio Video Interleave
Размер файла                             : 2,05 Гбайт
Продолжительность                        : 2 ч. 31 м.
Общий поток                              : 1934 Кбит/сек
Название фильма                          : Admiral.2015.L2.HDRip.2100MB.ELEKTRI4KA.uniongang.tv
Режиссёр                                 : Carl Gaus
Программа кодирования                    : VirtualDubMod 1.5.10.3 | www.virtualdub-fr.org || (build 2550/release)
Правообладатель                          : UNIONGANG&RUSTORRENTS

Видео
Идентификатор                            : 0
Формат                                   : MPEG-4 Visual
Профиль формата                          : Advanced Simple@L5
Параметр BVOP формата                    : 2
Параметр QPel формата                    : Нет
Параметр GMC формата                     : Без точки перехода
Параметр матрицы формата                 : Default (MPEG)
Идентификатор кодека                     : XVID
Идентификатор кодека/Подсказка           : XviD
Продолжительность                        : 2 ч. 31 м.
Битрейт                                  : 1733 Кбит/сек
Ширина                                   : 720 пикселей
Высота                                   : 304 пикселя
Соотношение сторон                       : 2,35:1
Частота кадров                           : 24,000 кадра/сек
Цветовое пространство                    : YUV
Субдискретизация насыщенности            : 4:2:0
Битовая глубина                          : 8 бит
Тип развёртки                            : Прогрессивная
Метод сжатия                             : С потерями
Бит/(Пиксели*Кадры)                      : 0.330
Размер потока                            : 1,84 Гбайт (90%)
Библиотека кодирования                   : XviD 1.2.1 (UTC 2008-12-04)

Аудио
Идентификатор                            : 1
Формат                                   : AC-3
Формат/Информация                        : Audio Coding 3
Расширение режима                        : CM (complete main)
Параметр Endianness формата              : Big
Идентификатор кодека                     : 2000
Продолжительность                        : 2 ч. 31 м.
Вид битрейта                             : Постоянный
Битрейт                                  : 192 Кбит/сек
Каналы                                   : 2 канала
Расположение каналов                     : Front: L R
Частота                                  : 48,0 КГц
Битовая глубина                          : 16 бит
Метод сжатия                             : С потерями
Размер потока                            : 209 Мбайт (10%)
Выравнивание                             : Разделение по промежуткам
Продолжительность промежутка             : 42  мс. (1,00 видеокадр)
Время предзагрузки промежутка            : 500  мс.
picpicpicpicpic
Для увеличения картинки щелкните мышкой по превью

Этот торрент недоступен для скачивания без регистрации, однако доступен по публичной magnet-ссылке (источники с публичных трекеров). Перед использованием ссылки прочтите, пожалуйста Пользовательское соглашение, а также как можно дольше оставайтесь на раздаче! Для того, чтобы скачать сам торрент-файл (который видит больше источников), а также для того, чтобы поблагодарить релизера, вам необходимо зарегистрироваться. Если регистрироваться лень - вы можете также попробовать скачать релиз по нашим партнерским ссылкам ниже.

[underverse.su].t55960.torrent
Трекер: Зарегистрирован   [ 14.07.2015 23:14 ]  

Статус: проверено (by makkol at 18.08.2015 23:50)
Поблагодарили: 4 человека
Тип торрента: публичный - доступные источники с открытых трекеров: 
Размер: 2,05 GB (занимает 0,47 DVDR, для записи нужно 1 болванка DVDR/RW)
 
 
Похожие темы
Форум Тема Автор Торрент Отв. Посл. сооб.
Зарубежное кино [HDDVDRip / BDRip / WEB-DL / HDTV 1080/720р] Адмирал / Michiel de Ruyter (Роэль Рейн) [2015 г., боевик, биография, исторический, BDRip 720p] DVO + Original + Subs makkol
9 | 0

0 | 411

16

14.07.2015 23:36

Зарубежное кино [HDDVDRip / BDRip / WEB-DL / HDTV 1080/720р] Адмирал / Michiel de Ruyter (Роэль Рейн) [2015 г., боевик, биография, исторический, BDRip 1080p] DVO + Original + Subs makkol
2 | 0

0 | 502

23

14.07.2015 23:49


Яндекс.Метрика powered by Sphinx


В Н И М А Н И Е
Сайт не распространяет и не хранит электронные версии произведений, а лишь бесплатно и без коммерческой выгоды (не требуя взамен платы,
SMS и т.д.) предоставляет доступ к создаваемому пользователями каталогу ссылок на торрент-файлы, которые содержат только списки хеш-сумм.
Убедительная просьба с жалобами обращаться напрямую к пользователю, разместившему торрент файл.

Вверх