Loading...
Error

Остров динозавров / Dinosaur Island (Матт Друммонд) [2014 г., фантастика, приключения, семейный, HDRip] VO

Статистика раздачи
Размер:  1,37 GB   |    Зарегистрирован:  1 год 4 месяца   |    Скачан:  22 раза

Полного источника не было: 3 дня

Сидов:  0  |  0 KB/s  ]   Личеров:  0  |  0 KB/s  ]

* - сиды/пиры с внешних источников

   
 
Автор Сообщение

makkol Пол:Муж

14-Июл-2015 22:25

Остров динозавров / Dinosaur Island


Год выпуска: 2014
Жанр: фантастика, приключения, семейный
Производство: Австралия [Extinct Productions]
Режиссер: Матт Друммонд
В ролях: Дариус Вильямс, Кэйт Расмуссен, Джо Виставеос, Джульет Фредерик, Винсент Навити, Пол Падагас, Николь Ярдли
Сюжет фильма:
Лукас, тринадцатилетний подросток, никак не ожидал больших приключений, отправляясь на очередные каникулы. Но судьба решила по-своему: самолет, на котором он летел, попадает в катастрофу. Очнувшись на странном острове, главный герой с ужасом узнает, что на этом клочке земли обитают доисторические рептилии.

  • Мировая премьера: 29 сентября 2014


Перевод: Enigma
Озвучивание: Хихикающий доктор

Качество видео: HDRip

Продолжительность: 01:23:01
Формат: AVI
Видео: XviD, 720x400 (16:9), 23.976 fps, 1906 kbps
Аудио: русский, любительский одноголосый закадровый, AC3 5.1, 48 kHz, 448 kbps

Код:

Формат : AVI
Формат/Информация : Audio Video Interleave
Размер файла : 1,37 Гбайт
Продолжительность : 1 ч. 23 м.
Общий поток : 2364 Кбит/сек
Программа кодирования : VirtualDubMod 1.5.10.2 (build 2540/release)
Библиотека кодирования : VirtualDubMod build 2540/release
Правообладатель : ExKinoRay

Видео
Идентификатор : 0
Формат : MPEG-4 Visual
Профиль формата : Advanced Simple@L5
Параметр BVOP формата : 1
Параметр QPel формата : Нет
Параметр GMC формата : Без точки перехода
Параметр матрицы формата : Выборочная
Идентификатор кодека : XVID
Идентификатор кодека/Подсказка : XviD
Продолжительность : 1 ч. 23 м.
Битрейт : 1906 Кбит/сек
Ширина : 720 пикселей
Высота : 400 пикселей
Соотношение сторон : 16:9
Частота кадров : 23,976 кадра/сек
Цветовое пространство : YUV
Субдискретизация насыщенности : 4:2:0
Битовая глубина : 8 бит
Тип развёртки : Прогрессивная
Метод сжатия : С потерями
Бит/(Пиксели*Кадры) : 0.276
Размер потока : 1,11 Гбайт (81%)
Библиотека кодирования : XviD 73

Аудио
Идентификатор : 1
Формат : AC-3
Формат/Информация : Audio Coding 3
Расширение режима : CM (complete main)
Параметр Endianness формата : Big
Идентификатор кодека : 2000
Продолжительность : 1 ч. 23 м.
Вид битрейта : Постоянный
Битрейт : 448 Кбит/сек
Каналы : 6 каналов
Расположение каналов : Front: L C R, Side: L R, LFE
Частота : 48,0 КГц
Битовая глубина : 16 бит
Метод сжатия : С потерями
Размер потока : 266 Мбайт (19%)
Выравнивание : Разделение по промежуткам
Продолжительность промежутка : 42 мс. (1,00 видеокадр)
Время предзагрузки промежутка : 500 мс.
Заголовок : xixidok
Релиз группы:

picpicpicpicpic
Для увеличения картинки щелкните мышкой по превью

Этот торрент недоступен для скачивания без регистрации, однако доступен по публичной magnet-ссылке (источники с публичных трекеров). Перед использованием ссылки прочтите, пожалуйста Пользовательское соглашение, а также как можно дольше оставайтесь на раздаче! Для того, чтобы скачать сам торрент-файл (который видит больше источников), а также для того, чтобы поблагодарить релизера, вам необходимо зарегистрироваться. Если регистрироваться лень - вы можете также попробовать скачать релиз по нашим партнерским ссылкам ниже.

[underverse.su].t55957.torrent
Трекер: Зарегистрирован   [ 14.07.2015 22:25 ]  

Статус: проверено (by makkol at 18.08.2015 23:43)
Поблагодарили: 1 человек
Тип торрента: публичный - доступные источники с открытых трекеров: 
Размер: 1,37 GB (занимает 0,31 DVDR, для записи нужно 1 болванка DVDR/RW)
 
 
Похожие темы
Форум Тема Автор Торрент Отв. Посл. сооб.
Зарубежное кино [HDDVDRip / BDRip / WEB-DL / HDTV 1080/720р] Остров динозавров / Dinosaur Island (Матт Друммонд) [2014 г., фантастика, приключения, семейный, BDRip 720p] VO + Original makkol
2 | 0

0 | 338

12

14.07.2015 22:39

Зарубежное кино [HDDVDRip / BDRip / WEB-DL / HDTV 1080/720р] Остров динозавров / Dinosaur Island (Матт Друммонд) [2014 г., фантастика, приключения, семейный, BDRip 1080p] VO + Original makkol
1 | 0

0 | 547

10

14.07.2015 22:49


Яндекс.Метрика powered by Sphinx


В Н И М А Н И Е
Сайт не распространяет и не хранит электронные версии произведений, а лишь бесплатно и без коммерческой выгоды (не требуя взамен платы,
SMS и т.д.) предоставляет доступ к создаваемому пользователями каталогу ссылок на торрент-файлы, которые содержат только списки хеш-сумм.
Убедительная просьба с жалобами обращаться напрямую к пользователю, разместившему торрент файл.

Вверх