Loading...
Error

Лига справедливости: Боги и монстры / Justice League: Gods and Monsters (Сэм Лью) [2015 г., мультфильм, боевик, WEB-DLRip] MVO + Original

Статистика раздачи
Размер:  1,37 GB   |    Зарегистрирован:  1 год 4 месяца   |    Скачан:  19 раз

Полного источника не было: 8 часов

Сидов:  0  |  0 KB/s  ]   Личеров:  0  |  0 KB/s  ]

* - сиды/пиры с внешних источников

   
 
Автор Сообщение

makkol Пол:Муж

14-Июл-2015 09:25

Лига справедливости: Боги и монстры / Justice League: Gods and Monsters


Год выпуска: 2015
Жанр: мультфильм, боевик
Производство: США [DC Entertainment, Warner Bros. Animation, Warner Premiere]
Режиссер: Сэм Лью
Роли озвучивали: Пэйджет Брюстер, Майкл С. Холл, Джейсон Айзекс, С. Томас Хауэлл, Бенджамин Брэтт, Тамара Тейлор
Сюжет фильма:
В альтернативной вселенной совершенно другие воплощения знаменитой супергеройской троицы после обвинения их в атаке на посольство оказываются в противостоянии с правительством.

  • Мировая премьера: 28 июля 2015


Качество видео: WEB-DLRip

Продолжительность: 01:15:56
Формат: AVI
Видео: XviD, 720х400, 23.976 fps, 1997 kbps
Аудио #1: русский, любительский многоголосый закадровый (ZM-SHOW), AC3 2.0, 44.1 kHz, 192 kbps
Аудио #2: английский, оригинал, AC3 5.1, 48 kHz, 384 kbps

Код:

Общее
Полное имя                               : L1ga.Spr4v3dl1v0sti.B0gi.i.M0ns7ry.2015.L.WEBDLRip.avi
Формат                                   : AVI
Формат/Информация                        : Audio Video Interleave
Размер файла                             : 1,37 Гбайт
Продолжительность                        : 1 ч. 15 м.
Общий поток                              : 2587 Кбит/сек
Программа кодирования                    : VirtualDubMod 1.5.10.3 | www.virtualdub-fr.org || (build 2550/release)
Библиотека кодирования                   : VirtualDubMod build 2550/release

Видео
Идентификатор                            : 0
Формат                                   : MPEG-4 Visual
Профиль формата                          : Advanced Simple@L5
Параметр BVOP формата                    : 2
Параметр QPel формата                    : Нет
Параметр GMC формата                     : Без точки перехода
Параметр матрицы формата                 : Default (MPEG)
Идентификатор кодека                     : XVID
Идентификатор кодека/Подсказка           : XviD
Продолжительность                        : 1 ч. 15 м.
Битрейт                                  : 1997 Кбит/сек
Ширина                                   : 720 пикселей
Высота                                   : 400 пикселей
Соотношение сторон                       : 16:9
Частота кадров                           : 23,976 кадра/сек
Цветовое пространство                    : YUV
Субдискретизация насыщенности            : 4:2:0
Битовая глубина                          : 8 бит
Тип развёртки                            : Прогрессивная
Метод сжатия                             : С потерями
Бит/(Пиксели*Кадры)                      : 0.289
Размер потока                            : 1,06 Гбайт (77%)
Библиотека кодирования                   : XviD 1.2.1 (UTC 2008-12-04)

Аудио #1
Идентификатор                            : 1
Формат                                   : AC-3
Формат/Информация                        : Audio Coding 3
Расширение режима                        : CM (complete main)
Параметр Endianness формата              : Big
Идентификатор кодека                     : 2000
Продолжительность                        : 1 ч. 15 м.
Вид битрейта                             : Постоянный
Битрейт                                  : 192 Кбит/сек
Каналы                                   : 2 канала
Расположение каналов                     : Front: L R
Частота                                  : 44,1 КГц
Битовая глубина                          : 16 бит
Метод сжатия                             : С потерями
Размер потока                            : 104 Мбайт (7%)
Выравнивание                             : Разделение по промежуткам
Продолжительность промежутка             : 42  мс. (1,00 видеокадр)
Время предзагрузки промежутка            : 500  мс.

Аудио #2
Идентификатор                            : 2
Формат                                   : AC-3
Формат/Информация                        : Audio Coding 3
Расширение режима                        : CM (complete main)
Параметр Endianness формата              : Big
Идентификатор кодека                     : 2000
Продолжительность                        : 1 ч. 15 м.
Вид битрейта                             : Постоянный
Битрейт                                  : 384 Кбит/сек
Каналы                                   : 6 каналов
Расположение каналов                     : Front: L C R, Side: L R, LFE
Частота                                  : 48,0 КГц
Битовая глубина                          : 16 бит
Метод сжатия                             : С потерями
Размер потока                            : 208 Мбайт (15%)
Выравнивание                             : Разделение по промежуткам
Продолжительность промежутка             : 42  мс. (1,00 видеокадр)
Время предзагрузки промежутка            : 500  мс.
picpicpicpicpic
Для увеличения картинки щелкните мышкой по превью

Этот торрент недоступен для скачивания без регистрации, однако доступен по публичной magnet-ссылке (источники с публичных трекеров). Перед использованием ссылки прочтите, пожалуйста Пользовательское соглашение, а также как можно дольше оставайтесь на раздаче! Для того, чтобы скачать сам торрент-файл (который видит больше источников), а также для того, чтобы поблагодарить релизера, вам необходимо зарегистрироваться. Если регистрироваться лень - вы можете также попробовать скачать релиз по нашим партнерским ссылкам ниже.

[underverse.su].t55943.torrent
Трекер: Зарегистрирован   [ 14.07.2015 09:25 ]  

Статус: проверено (by Паукан at 16.07.2015 10:12)
Поблагодарили: пока никто не поблагодарил...
Тип торрента: публичный - доступные источники с открытых трекеров: 
Размер: 1,37 GB (занимает 0,31 DVDR, для записи нужно 1 болванка DVDR/RW)
 
 
Похожие темы
Форум Тема Автор Торрент Отв. Посл. сооб.
Зарубежные мультфильмы Лига Справедливости: Кризис на двух Землях / Justice League: Crisis on Two Earths (Сэм Лью, Лоурен Монтгомери ) [2010 г., Приключения, фантастика, экшн, экранизация комиксов, DVDRip] МУХА~
1 | 0

1 | 1015

17

22.08.2010 10:17

Зарубежные мультфильмы Лига справедливости: Война / Justice League: War (Джей Олива / Jay Oliva) [2014 г., комикс, мультфильм, фантастика, фэнтези, боевик, приключения, WEB-DLRip] MVO (Kapets's Studios) + Original (Eng) 90ytr90
2 | 0

0 | 911

27

31.01.2014 16:28

Зарубежные мультфильмы Лига Справедливости: Трон Атлантиды / Justice League: Throne of Atlantis (Этан Сполдинг / Ethan Spaulding) [2015 г., мультфильм, боевик, приключения, комикс, HDRip] MVO + Original (Eng) 90ytr90
0 | 0

0 | 501

14

07.02.2015 20:17

T Зарубежные мультфильмы Лига Справедливости: Трон Атлантиды / Justice League: Throne of Atlantis (Этан Сполдинг / Ethan Spaulding) [2015 г., мультфильм, боевик, приключения, комикс, HDRip] MVO (чистый звук) + Original (Eng) 90ytr90
4 | 0

0 | 716

15

01.03.2015 19:11

Зарубежные мультфильмы Лига Справедливости против Юных Титанов / Justice League vs. Teen Titans (Сэм Лью) [2016 г., мультфильм, боевик, фантастика, фэнтези, BDRip] MVO makkol
18 | 0

0 | 2240

18

12.04.2016 14:56

Мультфильмы [HDDVDRip / BDRip / WEB-DL / HDTV 1080/720р] Лига справедливости: Боги и монстры / Justice League: Gods and Monsters (Сэм Лью) [2015 г., мультфильм, боевик, WEB-DL 1080p] MVO + Original + Subs (Eng) makkol
1 | 0

0 | 689

10

14.07.2015 09:44

Мультфильмы [HDDVDRip / BDRip / WEB-DL / HDTV 1080/720р] Лига Справедливости против Юных Титанов / Justice League vs. Teen Titans (Сэм Лью) [2016 г., мультфильм, боевик, фантастика, фэнтези, BDRip 1080p] MVO + Original + Subs makkol
10 | 0

0 | 2223

10

12.04.2016 15:16


Яндекс.Метрика powered by Sphinx


В Н И М А Н И Е
Сайт не распространяет и не хранит электронные версии произведений, а лишь бесплатно и без коммерческой выгоды (не требуя взамен платы,
SMS и т.д.) предоставляет доступ к создаваемому пользователями каталогу ссылок на торрент-файлы, которые содержат только списки хеш-сумм.
Убедительная просьба с жалобами обращаться напрямую к пользователю, разместившему торрент файл.

Вверх