Loading...
Error

Аллилуйя / Alleluia (Фабрис дю Вельц) [2014 г., триллер, драма, DVDRip] VO

Статистика раздачи
Размер:  1,41 GB   |    Зарегистрирован:  1 год 4 месяца   |    Скачан:  22 раза

Полного источника не было: 9 месяцев

Сидов:  0  |  0 KB/s  ]   Личеров:  0  |  0 KB/s  ]

* - сиды/пиры с внешних источников

   
 
Автор Сообщение

makkol Пол:Муж

13-Июл-2015 15:53

Аллилуйя / Alléluia


Год выпуска: 2014
Жанр: триллер, драма
Производство: Бельгия , Франция [Canal+ France, Radar Films, Savage Film, Fédération Wallonie-Bruxelles]
Режиссер: Фабрис дю Вельц
В ролях: Лола Дуэньяс, Лоран Люка, Элена Ногуэрра, Эдит ле Мерди, Энн-Мари Луп, Стефан Биссо, Давид Муржиа, Рено Раттен, Филипп Резимон
Сюжет фильма:
Мать-одиночка Глория встречается с мужчиной, который нашел ее на сайте знакомств. Ужин, вино, секс — все настолько безупречно, что наутро впечатлительная Глория уже не может представить свою жизнь без Мишеля, который оказывается профессиональным жиголо. Но страсть уже полностью завладела Глорией — чтобы не расставаться с Мишелем, она становится его верной компаньоншей. И только ее неконтролируемая ревность мешает проворачивать аферы с доверчивыми вдовами бескровно…

  • Мировая премьера: 22 мая 2014


Качество видео: DVDRip

Продолжительность: 01:29:24
Формат: AVI
Видео: DivX, 720x304, 25.000 fps, 1871 kbps
Аудио: русский, любительский одноголосый закадровый (liosaa), AC3 2.0, 48 kHz, 384 kbps

Код:

Общее
Полное имя                               : Alleluia.2014.DVDRip.avi
Формат                                   : AVI
Формат/Информация                        : Audio Video Interleave
Размер файла                             : 1,41 Гбайт
Продолжительность                        : 1 ч. 29 м.
Общий поток                              : 2265 Кбит/сек
Программа кодирования                    : VirtualDubMod 1.5.10.2 (build 2540/release)
Библиотека кодирования                   : VirtualDubMod build 2540/release

Видео
Идентификатор                            : 0
Формат                                   : MPEG-4 Visual
Профиль формата                          : Advanced Simple@L4
Параметр BVOP формата                    : 2
Параметр QPel формата                    : Нет
Параметр GMC формата                     : Без точки перехода
Параметр матрицы формата                 : Default (H.263)
Идентификатор кодека                     : DIVX
Идентификатор кодека/Информация          : Project Mayo
Идентификатор кодека/Подсказка           : DivX 4
Продолжительность                        : 1 ч. 29 м.
Битрейт                                  : 1871 Кбит/сек
Ширина                                   : 720 пикселей
Высота                                   : 304 пикселя
Соотношение сторон                       : 2,35:1
Частота кадров                           : 25,000 кадров/сек
Цветовое пространство                    : YUV
Субдискретизация насыщенности            : 4:2:0
Битовая глубина                          : 8 бит
Тип развёртки                            : Прогрессивная
Метод сжатия                             : С потерями
Бит/(Пиксели*Кадры)                      : 0.342
Размер потока                            : 1,17 Гбайт (83%)
Библиотека кодирования                   : XviD 64

Аудио
Идентификатор                            : 1
Формат                                   : AC-3
Формат/Информация                        : Audio Coding 3
Расширение режима                        : CM (complete main)
Параметр Endianness формата              : Big
Идентификатор кодека                     : 2000
Продолжительность                        : 1 ч. 29 м.
Вид битрейта                             : Постоянный
Битрейт                                  : 384 Кбит/сек
Каналы                                   : 2 канала
Расположение каналов                     : Front: L R
Частота                                  : 48,0 КГц
Битовая глубина                          : 16 бит
Метод сжатия                             : С потерями
Размер потока                            : 246 Мбайт (17%)
Выравнивание                             : Разделение по промежуткам
Продолжительность промежутка             : 40  мс. (1,00 видеокадр)
Время предзагрузки промежутка            : 500  мс.
picpicpicpicpic
Для увеличения картинки щелкните мышкой по превью

Этот торрент недоступен для скачивания без регистрации, однако доступен по публичной magnet-ссылке (источники с публичных трекеров). Перед использованием ссылки прочтите, пожалуйста Пользовательское соглашение, а также как можно дольше оставайтесь на раздаче! Для того, чтобы скачать сам торрент-файл (который видит больше источников), а также для того, чтобы поблагодарить релизера, вам необходимо зарегистрироваться. Если регистрироваться лень - вы можете также попробовать скачать релиз по нашим партнерским ссылкам ниже.

[underverse.su].t55913.torrent
Трекер: Зарегистрирован   [ 13.07.2015 15:53 ]  

Статус: проверено (by Ведьмочка at 13.07.2015 22:00)
Поблагодарили: пока никто не поблагодарил...
Тип торрента: публичный - доступные источники с открытых трекеров: 
Размер: 1,41 GB (занимает 0,32 DVDR, для записи нужно 1 болванка DVDR/RW)
 
 

Яндекс.Метрика powered by Sphinx


В Н И М А Н И Е
Сайт не распространяет и не хранит электронные версии произведений, а лишь бесплатно и без коммерческой выгоды (не требуя взамен платы,
SMS и т.д.) предоставляет доступ к создаваемому пользователями каталогу ссылок на торрент-файлы, которые содержат только списки хеш-сумм.
Убедительная просьба с жалобами обращаться напрямую к пользователю, разместившему торрент файл.

Вверх