Loading...
Error

Кровная месть / Вендетта / Vendetta (Джен Соска, Сильвия Соска) [2015 г., боевик, драма, WEB-DLRip] VO

Статистика раздачи
Размер:  1,45 GB   |    Зарегистрирован:  1 год 4 месяца   |    Скачан:  29 раз

Полного источника не было: 3 месяца 13 дней

Сидов:  0  |  0 KB/s  ]   Личеров:  0  |  0 KB/s  ]

* - сиды/пиры с внешних источников

   
 
Автор Сообщение

makkol Пол:Муж

12-Июл-2015 13:03

Кровная месть / Вендетта / Vendetta
«Get Ready for Hell in a Cell»


Год выпуска: 2015
Жанр: боевик, драма
Производство: США [WWE Studios]
Режиссер: Джен Соска, Сильвия Соска
В ролях: Дин Кэйн, Пол Уайт, Майкл Эклунд, Бен Холлингсворт, Адриан Холмс, Мэттью МакКоулл, Кира Загорски, Алекс Паунович, Джонатан Уолкер, Ди Джей Джексон
Сюжет фильма:
Мейсон - частный детектив, который в поисках возмездия переступает черту закона. Ярость, безысходность и жажда отомстить за близкого человека превращают его из полицейского в преступника. Он намеренно садится в тюрьму, чтобы добраться к убийце своей жени, который отбывает там наказание. Но попав за решетку, он становится настоящей мишенью для заключенных, ведь многие хотят отомстить бывшему стражу порядка, который когда-то упрятал их за решетку. Мейсон оказывается в очень непростой и опасной ситуации, ведь он хочет отомстить лишь одному, в то время, как очень многие желают поквитаться с ним.

  • Мировая премьера: 12 июня 2015


Перевод: anton1
Озвучивание: datynet

Качество видео: WEB-DLRip

Продолжительность: 01:30:09
Формат: AVI
Видео: XviD, 720x400, 23.976 fps, 1916 kbps
Аудио: русский, любительский одноголосый закадровый, AC3 5.1, 48 kHz, 384 kbps

Код:

Общее
Полное имя                               : Vendetta.2015.L1.WEB-DLRip.avi
Формат                                   : AVI
Формат/Информация                        : Audio Video Interleave
Размер файла                             : 1,46 Гбайт
Продолжительность                        : 1 ч. 30 м.
Общий поток                              : 2311 Кбит/сек
Программа кодирования                    : VirtualDubMod 1.5.10.2 (build 2540/release)
Библиотека кодирования                   : VirtualDubMod build 2540/release

Видео
Идентификатор                            : 0
Формат                                   : MPEG-4 Visual
Профиль формата                          : Advanced Simple@L5
Параметр BVOP формата                    : 2
Параметр QPel формата                    : Нет
Параметр GMC формата                     : Без точки перехода
Параметр матрицы формата                 : Default (MPEG)
Идентификатор кодека                     : XVID
Идентификатор кодека/Подсказка           : XviD
Продолжительность                        : 1 ч. 30 м.
Битрейт                                  : 1916 Кбит/сек
Ширина                                   : 720 пикселей
Высота                                   : 400 пикселей
Соотношение сторон                       : 16:9
Частота кадров                           : 23,976 кадра/сек
Цветовое пространство                    : YUV
Субдискретизация насыщенности            : 4:2:0
Битовая глубина                          : 8 бит
Тип развёртки                            : Прогрессивная
Метод сжатия                             : С потерями
Бит/(Пиксели*Кадры)                      : 0.278
Размер потока                            : 1,21 Гбайт (83%)
Библиотека кодирования                   : XviD 1.2.1 (UTC 2008-12-04)

Аудио
Идентификатор                            : 1
Формат                                   : AC-3
Формат/Информация                        : Audio Coding 3
Расширение режима                        : CM (complete main)
Параметр Endianness формата              : Big
Идентификатор кодека                     : 2000
Продолжительность                        : 1 ч. 30 м.
Вид битрейта                             : Постоянный
Битрейт                                  : 384 Кбит/сек
Каналы                                   : 6 каналов
Расположение каналов                     : Front: L C R, Side: L R, LFE
Частота                                  : 48,0 КГц
Метод сжатия                             : С потерями
Размер потока                            : 248 Мбайт (17%)
Выравнивание                             : Разделение по промежуткам
Продолжительность промежутка             : 42  мс. (1,00 видеокадр)
Время предзагрузки промежутка            : 500  мс.
picpicpicpicpic
Для увеличения картинки щелкните мышкой по превью

Этот торрент недоступен для скачивания без регистрации, однако доступен по публичной magnet-ссылке (источники с публичных трекеров). Перед использованием ссылки прочтите, пожалуйста Пользовательское соглашение, а также как можно дольше оставайтесь на раздаче! Для того, чтобы скачать сам торрент-файл (который видит больше источников), а также для того, чтобы поблагодарить релизера, вам необходимо зарегистрироваться. Если регистрироваться лень - вы можете также попробовать скачать релиз по нашим партнерским ссылкам ниже.

[underverse.su].t55896.torrent
Трекер: Зарегистрирован   [ 12.07.2015 13:03 ]  

Статус: проверено (by makkol at 18.08.2015 23:25)
Поблагодарили: 1 человек
Тип торрента: публичный - доступные источники с открытых трекеров: 
Размер: 1,45 GB (занимает 1/3 DVDR, для записи нужно 1 болванка DVDR/RW)
 
 
Похожие темы
Форум Тема Автор Торрент Отв. Посл. сооб.
Зарубежное кино [DVDRip, Low-Res HDRip, и т.д.] Кровная месть / Вендетта / Vendetta (Джен Соска, Сильвия Соска) [2015 г., боевик, драма, HDRip] VO makkol
154 | 2

0 | 657

27

07.08.2015 15:32

Зарубежное кино [HDDVDRip / BDRip / WEB-DL / HDTV 1080/720р] Кровная месть / Вендетта / Vendetta (Джен Соска, Сильвия Соска) [2015 г., боевик, драма, WEB-DL 720p] VO + Original + Subs (Eng) makkol
5 | 0

0 | 441

11

12.07.2015 13:14

Зарубежное кино [HDDVDRip / BDRip / WEB-DL / HDTV 1080/720р] Кровная месть / Вендетта / Vendetta (Джен Соска, Сильвия Соска) [2015 г., боевик, драма, WEB-DL 1080p] VO + Original + Subs (Eng) makkol
4 | 0

0 | 498

10

12.07.2015 13:26

Зарубежное кино [HDDVDRip / BDRip / WEB-DL / HDTV 1080/720р] Кровная месть / Вендетта / Vendetta (Джен Соска, Сильвия Соска) [2015 г., боевик, драма, BDRip 720p] VO + Original makkol
0 | 0

1 | 703

17

07.08.2015 16:02


Яндекс.Метрика powered by Sphinx


В Н И М А Н И Е
Сайт не распространяет и не хранит электронные версии произведений, а лишь бесплатно и без коммерческой выгоды (не требуя взамен платы,
SMS и т.д.) предоставляет доступ к создаваемому пользователями каталогу ссылок на торрент-файлы, которые содержат только списки хеш-сумм.
Убедительная просьба с жалобами обращаться напрямую к пользователю, разместившему торрент файл.

Вверх