Loading...
Error

Лицо ангела / The Face of an Angel (Майкл Уинтерботтом) [2014 г., триллер, WEB-DLRip] MVO

Статистика раздачи
Размер:  1,45 GB   |    Зарегистрирован:  1 год 4 месяца   |    Скачан:  24 раза

Полного источника не было: 1 месяц 2 дня

Сидов:  0  |  0 KB/s  ]   Личеров:  0  |  0 KB/s  ]

* - сиды/пиры с внешних источников

   
 
Автор Сообщение

makkol Пол:Муж

11-Июл-2015 23:21

Лицо ангела / The Face of an Angel
«Forget the truth, find the story»


Год выпуска: 2014
Жанр: триллер
Производство: Великобритания , Италия , Испания [BBC Films, Cattleya, Multitrade, Revolution Films, Vedette Finance, Ypsilon Films]
Режиссер: Майкл Уинтерботтом
В ролях: Кара Делевинь, Кейт Бекинсейл, Даниэль Брюль, Сара Стюарт, Ава Акрес, Люси Коху, Женевьев Гонт, Джон Хопкинс, Алистэр Петри, Сай Беннетт
Сюжет фильма:
После прогремевшего на весь мир убийства молодой девушки, в итальянский город Сиена приезжает молодой режиссер для подготовки к съемкам фильма по мотивам преступления. Там он знакомится с американской журналисткой Симоной Форд, недавно написавшей об этом противоречивую книгу. В городе правят бал обезумевшие репортеры со всего мира, вываливающие на своих зрителей у телеэкранов груды «грязного белья» в погоне за кричащими заголовками. А об убитой девушке абсолютно забыли…

  • Мировая премьера: 6 сентября 2014
  • Российская премьера: 25 июня 2015


Качество видео: WEB-DLRip

Продолжительность: 01:41:28
Формат: AVI
Видео: XviD, 720x304, 24.000 fps, 1839 kbps
Аудио: русский, профессиональный многоголосый закадровый, AC3 2.0, 48 kHz, 192 kbps

Код:

Общее
Полное имя                               : L1c0.AHgeLa.2014.P.WEB-DLRip.1.46Gb.avi
Формат                                   : AVI
Формат/Информация                        : Audio Video Interleave
Размер файла                             : 1,45 Гбайт
Продолжительность                        : 1 ч. 41 м.
Общий поток                              : 2041 Кбит/сек
Программа кодирования                    : VirtualDubMod 1.5.10.2 (build 2540/release)
Библиотека кодирования                   : VirtualDubMod build 2540/release

Видео
Идентификатор                            : 0
Формат                                   : MPEG-4 Visual
Профиль формата                          : Advanced Simple@L5
Параметр BVOP формата                    : 2
Параметр QPel формата                    : Нет
Параметр GMC формата                     : Без точки перехода
Параметр матрицы формата                 : Default (MPEG)
Идентификатор кодека                     : XVID
Идентификатор кодека/Подсказка           : XviD
Продолжительность                        : 1 ч. 41 м.
Битрейт                                  : 1839 Кбит/сек
Ширина                                   : 720 пикселей
Высота                                   : 304 пикселя
Соотношение сторон                       : 2,35:1
Частота кадров                           : 24,000 кадра/сек
Цветовое пространство                    : YUV
Субдискретизация насыщенности            : 4:2:0
Битовая глубина                          : 8 бит
Тип развёртки                            : Прогрессивная
Метод сжатия                             : С потерями
Бит/(Пиксели*Кадры)                      : 0.350
Размер потока                            : 1,30 Гбайт (90%)
Библиотека кодирования                   : XviD 1.2.1 (UTC 2008-12-04)

Аудио
Идентификатор                            : 1
Формат                                   : AC-3
Формат/Информация                        : Audio Coding 3
Расширение режима                        : CM (complete main)
Параметр Endianness формата              : Big
Идентификатор кодека                     : 2000
Продолжительность                        : 1 ч. 41 м.
Вид битрейта                             : Постоянный
Битрейт                                  : 192 Кбит/сек
Каналы                                   : 2 канала
Расположение каналов                     : Front: L R
Частота                                  : 48,0 КГц
Битовая глубина                          : 16 бит
Метод сжатия                             : С потерями
Размер потока                            : 139 Мбайт (9%)
Выравнивание                             : Разделение по промежуткам
Продолжительность промежутка             : 42  мс. (1,00 видеокадр)
Время предзагрузки промежутка            : 500  мс.
picpicpicpicpic
Для увеличения картинки щелкните мышкой по превью

Этот торрент недоступен для скачивания без регистрации, однако доступен по публичной magnet-ссылке (источники с публичных трекеров). Перед использованием ссылки прочтите, пожалуйста Пользовательское соглашение, а также как можно дольше оставайтесь на раздаче! Для того, чтобы скачать сам торрент-файл (который видит больше источников), а также для того, чтобы поблагодарить релизера, вам необходимо зарегистрироваться. Если регистрироваться лень - вы можете также попробовать скачать релиз по нашим партнерским ссылкам ниже.

[underverse.su].t55865.torrent
Трекер: Зарегистрирован   [ 11.07.2015 23:21 ]  

Статус: проверено (by makkol at 18.08.2015 22:46)
Поблагодарили: пока никто не поблагодарил...
Тип торрента: публичный - доступные источники с открытых трекеров: 
Размер: 1,45 GB (занимает 1/3 DVDR, для записи нужно 1 болванка DVDR/RW)
 
 
Похожие темы
Форум Тема Автор Торрент Отв. Посл. сооб.
Зарубежное кино [HDDVDRip / BDRip / WEB-DL / HDTV 1080/720р] Лицо ангела / The Face of an Angel (Майкл Уинтерботтом) [2014 г., триллер, WEB-DL 720p] MVO + Original + Subs (Eng) makkol
9 | 2

0 | 346

3

11.07.2015 23:34

Зарубежное кино [HDDVDRip / BDRip / WEB-DL / HDTV 1080/720р] Лицо ангела / The Face of an Angel (Майкл Уинтерботтом) [2014 г., триллер, WEB-DL 1080p] MVO + Original + Subs (Eng) makkol
2 | 0

0 | 429

9

11.07.2015 23:46


Яндекс.Метрика powered by Sphinx


В Н И М А Н И Е
Сайт не распространяет и не хранит электронные версии произведений, а лишь бесплатно и без коммерческой выгоды (не требуя взамен платы,
SMS и т.д.) предоставляет доступ к создаваемому пользователями каталогу ссылок на торрент-файлы, которые содержат только списки хеш-сумм.
Убедительная просьба с жалобами обращаться напрямую к пользователю, разместившему торрент файл.

Вверх