Loading...
Error

Женщина в золотом / Woman in Gold (Саймон Кертис) [2015 г., драма, HDRip] DVO

Статистика раздачи
Размер:  1,36 GB   |    Зарегистрирован:  1 год 4 месяца   |    Скачан:  16 раз

Полного источника не было: 3 месяца 23 дня

Сидов:  0  |  0 KB/s  ]   Личеров:  0  |  0 KB/s  ]

* - сиды/пиры с внешних источников

   
 
Автор Сообщение

makkol Пол:Муж

11-Июл-2015 12:59

Женщина в золотом / Woman in Gold
«The fight for justice never ends»


Год выпуска: 2015
Жанр: драма
Производство: США , Великобритания [Origin Pictures, BBC Films]
Режиссер: Саймон Кертис
В ролях: Хелен Миррен, Райан Рейнольдс, Даниэль Брюль, Кэти Холмс, Татьяна Маслани, Макс Айронс, Чарльз Дэнс, Элизабет МакГоверн, Джонатан Прайс, Антье Трауэ
Сюжет фильма:
История Марии Альтманн, которая пытается добиться справедливости — вернуть ценности, отобранные у ее семьи нацистами несколько десятилетий назад. Среди культурного достояния женщины известная картина Густава Климта «Портрет Адели Блох-Бауэр», которую иногда называют «Золотая Адель». Вместе с неопытным, но отважным молодым адвокатом, женщина пытается доказать свои права на наследие предков.

  • Мировая премьера: 9 февраля 2015


Качество видео: HDRip

Продолжительность: 01:49:43
Формат: AVI
Видео: XviD, 720x304, 23.976 fps, 1580 kbps
Аудио: русский, любительский двухголосый закадровый (ColdFilm), MP3 2.0, 48 kHz, 192 kbps

Код:

Общее
Полное имя                               : Zhenchina.V.Zolotom.avi
Формат                                   : AVI
Формат/Информация                        : Audio Video Interleave
Размер файла                             : 1,36 Гбайт
Продолжительность                        : 1 ч. 49 м.
Общий поток                              : 1781 Кбит/сек
Программа кодирования                    : VirtualDubMod 1.5.10.2 (build 2540/release)
Библиотека кодирования                   : VirtualDubMod build 2540/release

Видео
Идентификатор                            : 0
Формат                                   : MPEG-4 Visual
Профиль формата                          : Advanced Simple@L5
Параметр BVOP формата                    : 4
Параметр QPel формата                    : Нет
Параметр GMC формата                     : 3 точки перехода
Параметр матрицы формата                 : Default (MPEG)
Идентификатор кодека                     : XVID
Идентификатор кодека/Подсказка           : XviD
Продолжительность                        : 1 ч. 49 м.
Битрейт                                  : 1580 Кбит/сек
Ширина                                   : 720 пикселей
Высота                                   : 304 пикселя
Соотношение сторон                       : 2,35:1
Частота кадров                           : 23,976 кадра/сек
Цветовое пространство                    : YUV
Субдискретизация насыщенности            : 4:2:0
Битовая глубина                          : 8 бит
Тип развёртки                            : Прогрессивная
Метод сжатия                             : С потерями
Бит/(Пиксели*Кадры)                      : 0.301
Размер потока                            : 1,21 Гбайт (89%)
Библиотека кодирования                   : XviD 1.2.1 (UTC 2008-12-04)

Аудио
Идентификатор                            : 1
Формат                                   : MPEG Audio
Версия формата                           : Version 1
Профиль формата                          : Layer 3
Режим                                    : Joint stereo
Идентификатор кодека                     : 55
Идентификатор кодека/Подсказка           : MP3
Продолжительность                        : 1 ч. 49 м.
Вид битрейта                             : Постоянный
Битрейт                                  : 192 Кбит/сек
Каналы                                   : 2 канала
Частота                                  : 48,0 КГц
Метод сжатия                             : С потерями
Размер потока                            : 151 Мбайт (11%)
Выравнивание                             : Соединение по промежуткам
Продолжительность промежутка             : 42  мс. (1,00 видеокадр)
Время предзагрузки промежутка            : 504  мс.
Библиотека кодирования                   : LAME3.99.5
picpicpicpicpic
Для увеличения картинки щелкните мышкой по превью

Этот торрент недоступен для скачивания без регистрации, однако доступен по публичной magnet-ссылке (источники с публичных трекеров). Перед использованием ссылки прочтите, пожалуйста Пользовательское соглашение, а также как можно дольше оставайтесь на раздаче! Для того, чтобы скачать сам торрент-файл (который видит больше источников), а также для того, чтобы поблагодарить релизера, вам необходимо зарегистрироваться. Если регистрироваться лень - вы можете также попробовать скачать релиз по нашим партнерским ссылкам ниже.

[underverse.su].t55846.torrent
Трекер: Зарегистрирован   [ 11.07.2015 12:59 ]  

Статус: проверено (by makkol at 18.08.2015 22:39)
Поблагодарили: пока никто не поблагодарил...
Тип торрента: публичный - доступные источники с открытых трекеров: 
Размер: 1,36 GB (занимает 0,31 DVDR, для записи нужно 1 болванка DVDR/RW)
 
 
Похожие темы
Форум Тема Автор Торрент Отв. Посл. сооб.
Зарубежное кино [DVDRip, Low-Res HDRip, и т.д.] Женщина в черном / The Woman in Black (Джеймс Уоткинс) [2012 г., ужасы, триллер, драма, HDRip] garry
1 | 0

2 | 770

52

31.03.2015 16:01

Зарубежное кино [DVDRip, Low-Res HDRip, и т.д.] Женщина в черном / The Woman in Black (Джеймс Уоткинс) [2012 г., ужасы, триллер, драма, HDRip] WeaSel
0 | 0

0 | 572

2

27.06.2012 17:40

Зарубежное кино [DVDRip, Low-Res HDRip, и т.д.] Женщина в красном / The Woman in Red (Джин Уайлдер) [1984 г., мелодрама, комедия, HDTVRip-AVC] MVO + AVO + Original garry
12 | 0

0 | 602

6

16.11.2012 23:08

Зарубежное кино [DVDRip, Low-Res HDRip, и т.д.] Женщина в клетке / Мистериум. Начало (Миккель Нёргор) [2013 г., триллер, криминал, детектив, HDRip] MVO + Original (Dan) Grey
19 | 0

3 | 1589

36

10.03.2014 08:43

T Зарубежное кино [DVDRip, Low-Res HDRip, и т.д.] Женщина в черном 2: Ангел смерти / The Woman in Black 2: Angel of Death (Том Харпер / Tom Harper.) [2014 г., ужасы, триллер, драма, HDRip] Dub (чистый звук) 90ytr90
7 | 1

0 | 729

35

18.02.2015 18:12

T Зарубежное кино [DVDRip, Low-Res HDRip, и т.д.] Женщина в черном 2: Ангел смерти / The Woman in Black 2: Angel of Death (Том Харпер) [2014 г., ужасы, триллер, драма, HDRip] Dub [чистый звук] + Original Паукан
0 | 0

0 | 430

14

31.03.2015 13:49

Зарубежное кино [DVDRip, Low-Res HDRip, и т.д.] Женщина в золотом / Woman in Gold (Саймон Кертис) [2015 г., драма, история, BDRip] MVO makkol
21 | 1

0 | 598

9

30.04.2016 21:58

Зарубежное кино [DVDRip, Low-Res HDRip, и т.д.] Женщина в золотом / Woman in Gold (Саймон Кертис / Simon Curtis) [2015 г., драма, история, BDRip-AVC] MVO (FocusStudio) + Original (Eng) + Sub (Rus, Eng) 90ytr90
23 | 0

0 | 538

3

04.05.2016 17:09

Зарубежное кино HQ Женщина в черном / The Woman in Black (Джеймс Уоткинс) [2012 г., ужасы, триллер, драма, HDRip] (Rus, Eng) HQ Underverse HQ Underverse
0 | 0

0 | 865

23

06.07.2012 12:39

xUSSR сериалы Женщина в беде [04 серии из 04] (Андрей Щербинин) [2014 г., мелодрама, криминальный, SatRip] konopic
7 | 0

0 | 964

16

21.03.2014 09:46


Яндекс.Метрика powered by Sphinx


В Н И М А Н И Е
Сайт не распространяет и не хранит электронные версии произведений, а лишь бесплатно и без коммерческой выгоды (не требуя взамен платы,
SMS и т.д.) предоставляет доступ к создаваемому пользователями каталогу ссылок на торрент-файлы, которые содержат только списки хеш-сумм.
Убедительная просьба с жалобами обращаться напрямую к пользователю, разместившему торрент файл.

Вверх