Loading...
Error

Последняя девушка / Final Girl (Тайлер Шилдс) [2015 г., триллер, боевик, драма, HDRip] VO + Original

Статистика раздачи
Размер:  1,47 GB   |    Зарегистрирован:  1 год 4 месяца   |    Скачан:  29 раз

Полного источника не было: 1 месяц 14 дней

Сидов:  0  |  0 KB/s  ]   Личеров:  0  |  0 KB/s  ]

* - сиды/пиры с внешних источников

   
 
Автор Сообщение

makkol Пол:Муж

11-Июл-2015 11:33

Последняя девушка / Final Girl


Год выпуска: 2015
Жанр: триллер, боевик, драма
Производство: США , Канада [NGN Productions, Prospect Park, Final Girl Productions]
Режиссер: Тайлер Шилдс
В ролях: Эбигейл Бреслин, Уэс Бентли, Логан Хаффман, Александр Людвиг, Камерон Брайт, Рис Томпсон, Эмма Паэтц, Грэйсин Шиней, Дезире Зуровски, Франческа Фишер-Иствуд
Сюжет фильма:
В центре событий фильма группа подростков, совершающие убийства девушек ради забавы. К несчастью в качестве жертвы они выбрали совсем не ту девчонку. Вскоре охотники сами оказались в роли добычи.

  • Мировая премьера: 8 июля 2015


Перевод: Михаил Васильев
Озвучивание: Хихикающий доктор

Качество видео: HDRip

Продолжительность: 01:24:12
Формат: AVI
Видео: XviD, 720x304, 23.976 fps, 1906 kbps
Аудио #1: русский, любительский одноголосый закадровый, AC3 2.0, 44.1 kHz, 192 kbps
Аудио #2: английский, оригинал, AC3 5.1, 48 kHz, 384 kbps

Код:

Общее
Полное имя                               : Final.Girl.2015.xixidok.HDRip.ExKinoRay.avi
Формат                                   : AVI
Формат/Информация                        : Audio Video Interleave
Размер файла                             : 1,47 Гбайт
Продолжительность                        : 1 ч. 24 м.
Общий поток                              : 2496 Кбит/сек
Программа кодирования                    : VirtualDubMod 1.5.10.2 (build 2540/release)
Библиотека кодирования                   : VirtualDubMod build 2540/release
Правообладатель                          : ExKinoRay

Видео
Идентификатор                            : 0
Формат                                   : MPEG-4 Visual
Профиль формата                          : Advanced Simple@L5
Параметр BVOP формата                    : 1
Параметр QPel формата                    : Нет
Параметр GMC формата                     : Без точки перехода
Параметр матрицы формата                 : Выборочная
Идентификатор кодека                     : XVID
Идентификатор кодека/Подсказка           : XviD
Продолжительность                        : 1 ч. 24 м.
Битрейт                                  : 1906 Кбит/сек
Ширина                                   : 720 пикселей
Высота                                   : 304 пикселя
Соотношение сторон                       : 2,35:1
Частота кадров                           : 23,976 кадра/сек
Цветовое пространство                    : YUV
Субдискретизация насыщенности            : 4:2:0
Битовая глубина                          : 8 бит
Тип развёртки                            : Прогрессивная
Метод сжатия                             : С потерями
Бит/(Пиксели*Кадры)                      : 0.363
Размер потока                            : 1,12 Гбайт (76%)
Библиотека кодирования                   : XviD 73

Аудио #1
Идентификатор                            : 1
Формат                                   : AC-3
Формат/Информация                        : Audio Coding 3
Расширение режима                        : CM (complete main)
Параметр Endianness формата              : Big
Идентификатор кодека                     : 2000
Продолжительность                        : 1 ч. 24 м.
Вид битрейта                             : Постоянный
Битрейт                                  : 192 Кбит/сек
Каналы                                   : 2 канала
Расположение каналов                     : Front: L R
Частота                                  : 44,1 КГц
Битовая глубина                          : 16 бит
Метод сжатия                             : С потерями
Размер потока                            : 116 Мбайт (8%)
Выравнивание                             : Разделение по промежуткам
Продолжительность промежутка             : 42  мс. (1,00 видеокадр)
Время предзагрузки промежутка            : 500  мс.
Заголовок                                : xixidok

Аудио #2
Идентификатор                            : 2
Формат                                   : AC-3
Формат/Информация                        : Audio Coding 3
Расширение режима                        : CM (complete main)
Параметр Endianness формата              : Big
Идентификатор кодека                     : 2000
Продолжительность                        : 1 ч. 24 м.
Вид битрейта                             : Постоянный
Битрейт                                  : 384 Кбит/сек
Каналы                                   : 6 каналов
Расположение каналов                     : Front: L C R, Side: L R, LFE
Частота                                  : 48,0 КГц
Битовая глубина                          : 16 бит
Метод сжатия                             : С потерями
Размер потока                            : 231 Мбайт (15%)
Выравнивание                             : Разделение по промежуткам
Продолжительность промежутка             : 42  мс. (1,00 видеокадр)
Время предзагрузки промежутка            : 500  мс.
Релиз группы:

picpicpicpicpic
Для увеличения картинки щелкните мышкой по превью

Этот торрент недоступен для скачивания без регистрации, однако доступен по публичной magnet-ссылке (источники с публичных трекеров). Перед использованием ссылки прочтите, пожалуйста Пользовательское соглашение, а также как можно дольше оставайтесь на раздаче! Для того, чтобы скачать сам торрент-файл (который видит больше источников), а также для того, чтобы поблагодарить релизера, вам необходимо зарегистрироваться. Если регистрироваться лень - вы можете также попробовать скачать релиз по нашим партнерским ссылкам ниже.

[underverse.su].t55842.torrent
Трекер: Зарегистрирован   [ 11.07.2015 11:33 ]  

Статус: проверено (by makkol at 18.08.2015 15:42)
Поблагодарили: пока никто не поблагодарил...
Тип торрента: публичный - доступные источники с открытых трекеров: 
Размер: 1,47 GB (занимает 0,34 DVDR, для записи нужно 1 болванка DVDR/RW)
 
 
Похожие темы
Форум Тема Автор Торрент Отв. Посл. сооб.
T Зарубежное кино [DVDRip, Low-Res HDRip, и т.д.] Последняя любовь мистера Моргана / Mr. Morgan's Last Love (Сандра Неттельбек / Sandra Nettelbeck) [2013 г., драма, комедия, BDRip-AVC] Dub (чистый звук) + DVO (Чистохина и Чепусов) + Original (Eng)... 90ytr90
2 | 0

0 | 446

11

23.04.2014 18:16

Зарубежное кино [DVDRip, Low-Res HDRip, и т.д.] Последняя надежда человечества / Against the Dark (Ричард Крудо) [2009 г., ужасы, фантастика, боевик, триллер, DVDRip] Boromir9
0 | 1

1 | 2076

3

19.12.2010 11:58

Зарубежное кино [DVDRip, Low-Res HDRip, и т.д.] Последняя любовь на Земле / Perfect Sense (Дэвид МакКензи) [2011 г., фантастика, драма, мелодрама, HDRip] MVO RG NewCinema
11 | 4

0 | 1245

41

13.11.2012 18:15

Зарубежное кино [DVDRip, Low-Res HDRip, и т.д.] Последняя искра жизни / La chispa de la vida (Алекс де ла Иглесиа) [2011, драма, DVDRip] MVO + Original Spa Garnett
13 | 0

0 | 861

4

10.12.2012 05:23

Зарубежное кино [DVDRip, Low-Res HDRip, и т.д.] Последняя искра жизни / La chispa de la vida (Алекс де ла Иглесиа) [2011, драма, DVDRip] MVO Garnett
30 | 0

1 | 1014

4

12.12.2012 18:06

Зарубежное кино [DVDRip, Low-Res HDRip, и т.д.] Последняя любовь на Земле / Perfect Sense (Дэвид МакКензи) [2011 г., фантастика, драма, мелодрама , BDRip-AVC] MVO Чертёнок
8 | 0

0 | 1366

27

02.02.2013 21:41

Зарубежное кино [DVDRip, Low-Res HDRip, и т.д.] Последняя карета / Последний вагон / The Last Wagon / L'ultima carrozzella (Марио Маттоли) [1943 г., Комедия, DVDRip] VO + Original Чертёнок
0 | 1

0 | 1295

1

23.09.2013 09:54

Зарубежное кино [DVDRip, Low-Res HDRip, и т.д.] Последняя любовь мистера Моргана / Mr. Morgan's Last Love (Сандра Неттельбек) [2013 г., драма, комедия, HDRip] DVO (CasStudio) 90ytr90
1 | 0

1 | 2076

37

22.12.2013 02:15

Зарубежное кино [DVDRip, Low-Res HDRip, и т.д.] Последняя любовь мистера Моргана / Mr. Morgan's Last Love (Сандра Неттельбек) [2013 г., драма, комедия, HDRip] DVO (CasStudio) 90ytr90
0 | 1

0 | 564

15

22.12.2013 06:46

T Зарубежное кино [DVDRip, Low-Res HDRip, и т.д.] Последняя любовь мистера Моргана / Mr. Morgan's Last Love (Сандра Неттельбек / Sandra Nettelbeck) [2013 г., драма, комедия, HDRip] Dub (чистый звук) + Original (Eng) 90ytr90
11 | 0

1 | 562

14

03.07.2014 21:53


Яндекс.Метрика powered by Sphinx


В Н И М А Н И Е
Сайт не распространяет и не хранит электронные версии произведений, а лишь бесплатно и без коммерческой выгоды (не требуя взамен платы,
SMS и т.д.) предоставляет доступ к создаваемому пользователями каталогу ссылок на торрент-файлы, которые содержат только списки хеш-сумм.
Убедительная просьба с жалобами обращаться напрямую к пользователю, разместившему торрент файл.

Вверх