Loading...
Error

Рука Дьявола / Где скрывается Дьявол / Where the Devil Hides (Кристиан Е. Кристиансен) [2014 г., триллер, ужасы, HDRip] Dub (Line)

Статистика раздачи
Размер:  1,36 GB   |    Зарегистрирован:  1 год 4 месяца   |    Скачан:  16 раз

Полного источника не было: 16 часов

Сидов:  0  |  0 KB/s  ]   Личеров:  0  |  0 KB/s  ]

* - сиды/пиры с внешних источников

   
 
Автор Сообщение

makkol Пол:Муж

11-Июл-2015 09:12

Рука Дьявола / Где скрывается Дьявол / Where the Devil Hides
«Forgive me father for I am SIN»


Год выпуска: 2014
Жанр: триллер, ужасы
Производство: США [LD Entertainment]
Режиссер: Кристиан Е. Кристиансен
В ролях: Алисия Дебнем-Кери, Руфус Сьюэлл, Томас МакДонелл, Аделаида Кэйн, Леа Пайпс, Дженнифер Карпентер, Колм Мини, Рик Райц, Джим Маккини, Кэти Гарфилд
Сюжет фильма:
Пять юных девушек, живущих в общине амишей, обвиняются местным сообществом в одержимости дьяволом. Подозревая, что под «обрядом очищения» старейшины религиозной группы подразумевают вовсе не исцеление, девушки вынуждены бороться за свою жизнь не с потусторонними силами, а с фанатично настроенными людьми.

  • Мировая премьера: 10 октября 2014
  • Российская премьера: 18 декабря 2014


Качество видео: HDRip

Продолжительность: 01:25:32
Формат: AVI
Видео: XviD, 720x304, 24.000 fps, 2077 kbps
Аудио: русский, дублированный (чистый звук), AC3 2.0, 48 kHz, 192 kbps

Код:

Общее
Полное имя                               : Ruka.djyavola.2014.D.HDRip.avi
Формат                                   : AVI
Формат/Информация                        : Audio Video Interleave
Размер файла                             : 1,36 Гбайт
Продолжительность                        : 1 ч. 25 м.
Общий поток                              : 2278 Кбит/сек
Программа кодирования                    : VirtualDubMod 1.5.10.2 (build 2540/release)
Библиотека кодирования                   : VirtualDubMod build 2540/release

Видео
Идентификатор                            : 0
Формат                                   : MPEG-4 Visual
Профиль формата                          : Advanced Simple@L5
Параметр BVOP формата                    : 2
Параметр QPel формата                    : Нет
Параметр GMC формата                     : Без точки перехода
Параметр матрицы формата                 : Default (MPEG)
Идентификатор кодека                     : XVID
Идентификатор кодека/Подсказка           : XviD
Продолжительность                        : 1 ч. 25 м.
Битрейт                                  : 2077 Кбит/сек
Ширина                                   : 720 пикселей
Высота                                   : 304 пикселя
Соотношение сторон                       : 2,35:1
Частота кадров                           : 24,000 кадра/сек
Цветовое пространство                    : YUV
Субдискретизация насыщенности            : 4:2:0
Битовая глубина                          : 8 бит
Тип развёртки                            : Прогрессивная
Метод сжатия                             : С потерями
Бит/(Пиксели*Кадры)                      : 0.378
Размер потока                            : 1,19 Гбайт (87%)
Библиотека кодирования                   : XviD 1.2.1 (UTC 2008-12-04)

Аудио
Идентификатор                            : 1
Формат                                   : AC-3
Формат/Информация                        : Audio Coding 3
Расширение режима                        : CM (complete main)
Параметр Endianness формата              : Big
Идентификатор кодека                     : 2000
Продолжительность                        : 1 ч. 25 м.
Вид битрейта                             : Постоянный
Битрейт                                  : 192 Кбит/сек
Каналы                                   : 2 канала
Расположение каналов                     : Front: L R
Частота                                  : 48,0 КГц
Битовая глубина                          : 16 бит
Метод сжатия                             : С потерями
Размер потока                            : 117 Мбайт (8%)
Выравнивание                             : Разделение по промежуткам
picpicpicpicpic
Для увеличения картинки щелкните мышкой по превью

Этот торрент недоступен для скачивания без регистрации, однако доступен по публичной magnet-ссылке (источники с публичных трекеров). Перед использованием ссылки прочтите, пожалуйста Пользовательское соглашение, а также как можно дольше оставайтесь на раздаче! Для того, чтобы скачать сам торрент-файл (который видит больше источников), а также для того, чтобы поблагодарить релизера, вам необходимо зарегистрироваться. Если регистрироваться лень - вы можете также попробовать скачать релиз по нашим партнерским ссылкам ниже.

[underverse.su].t55834.torrent
Трекер: Зарегистрирован   [ 11.07.2015 09:12 ]  

Статус: T временная (by makkol at 18.08.2015 15:36)
Поблагодарили: пока никто не поблагодарил...
Тип торрента: публичный - доступные источники с открытых трекеров: 
Размер: 1,36 GB (занимает 0,31 DVDR, для записи нужно 1 болванка DVDR/RW)
 
 
Похожие темы
Форум Тема Автор Торрент Отв. Посл. сооб.
Зарубежное кино [DVDRip, Low-Res HDRip, и т.д.] Рука Дьявола / Where the Devil Hides (Кристиан Е. Кристиансен) [2014 г., Триллер, WEB-DLRip] VO (RUS, ХиХиДок) + Original (ENG) Ведьмочка
0 | 0

0 | 780

23

14.11.2014 00:13

Зарубежное кино [HDDVDRip / BDRip / WEB-DL / HDTV 1080/720р] Рука Дьявола / Where the Devil Hides (Кристиан Е. Кристиансен) [2014 г., Триллер, WEB-DL 720p] VO (RUS, ХиХиДок) + Original (ENG) Ведьмочка
12 | 2

0 | 640

8

14.11.2014 00:03

T Зарубежное кино [HDDVDRip / BDRip / WEB-DL / HDTV 1080/720р] Рука Дьявола / Где скрывается Дьявол / Where the Devil Hides (Кристиан Е. Кристиансен) [2014 г., триллер, ужасы, BDRip 720p] Dub (Line) + Original makkol
1 | 1

0 | 279

3

11.07.2015 09:23

T Зарубежное кино [HDDVDRip / BDRip / WEB-DL / HDTV 1080/720р] Рука Дьявола / Где скрывается Дьявол / Where the Devil Hides (Кристиан Е. Кристиансен) [2014 г., триллер, ужасы, BDRip 1080p] Dub (Line) + Original makkol
7 | 0

0 | 442

4

11.07.2015 09:32


Яндекс.Метрика powered by Sphinx


В Н И М А Н И Е
Сайт не распространяет и не хранит электронные версии произведений, а лишь бесплатно и без коммерческой выгоды (не требуя взамен платы,
SMS и т.д.) предоставляет доступ к создаваемому пользователями каталогу ссылок на торрент-файлы, которые содержат только списки хеш-сумм.
Убедительная просьба с жалобами обращаться напрямую к пользователю, разместившему торрент файл.

Вверх