Loading...
Error

Спасти рядового Райана (Saving Private Ryan) Чадов (Стивен Спилберг) [1998 г., военный, BDRip] AVO

 
Автор Сообщение

sanchillo Пол:Муж

11-Июл-2015 05:22

Спасти рядового Райана (Saving Private Ryan) Чадов [ненорматив]




Год выпуска: 1998
Жанр: военный
Страна: США
Режиссер: Стивен Спилберг
В ролях: Том Хэнкс, Том Сайзмор, Эдвард Бёрнс, Барри Пеппер, Адам Голдберг, Вин Дизель, Джованни Рибизи, Джереми Дэвис, Мэтт Дэймон
Сюжет фильма:
Капитан Джон Миллер получает тяжелое задание. Вместе с отрядом из восьми человек Миллер должен отправиться в тыл врага на поиски рядового Джеймса Райана, три родных брата которого почти одновременно погибли на полях сражений.

Командование приняло решение демобилизовать Райана и отправить его на родину к безутешной матери. Но для того, чтобы найти и спасти солдата, крошечному отряду придется пройти через все круги ада…

  • Мировая премьера: 24 июля 1998
  • Российская премьера: 9 октября 1998


Качество видео: BDRip

Продолжительность: 02:48:21
Формат: MKV
Видео: MPEG-4 AVC, 1 024х552 pixels, 2 600 Kbp
Аудио: русский, одноголосый закадровый [авторский], AC3 5.1, 448 Kbps

Код:

General
Unique ID                                : 247992104869929469628923898100243453018 (0xBA918AC55D9EEFAC957EC4139F1B545A)
Complete name                            : D:\Rutor\Спасти рядового Райана (Saving Private Ryan) 1998\Спасти рядового Райана (Saving Private Ryan) 1998 [Chadov] BDRip.mkv
Format                                   : Matroska
Format version                           : Version 4 / Version 2
File size                                : 3.58 GiB
Duration                                 : 2h 48mn
Overall bit rate                         : 3 048 Kbps
Movie name                               : Rip by Ernesto Che
Encoded date                             : UTC 2015-07-11 04:00:53
Writing application                      : mkvmerge v7.9.0 ('Birds') 64bit
Writing library                          : libebml v1.3.1 + libmatroska v1.4.2
Cover                                    : Yes
DURATION                                 : 02:48:21.088000000
NUMBER_OF_FRAMES                         : 315659
NUMBER_OF_BYTES                          : 565660928
_STATISTICS_WRITING_APP                  : mkvmerge v7.9.0 ('Birds') 64bit
_STATISTICS_WRITING_DATE_UTC             : 2015-07-11 04:00:53
_STATISTICS_TAGS                         : BPS DURATION NUMBER_OF_FRAMES NUMBER_OF_BYTES

Video
ID                                       : 1
Format                                   : AVC
Format/Info                              : Advanced Video Codec
Format profile                           : High@L4.1
Format settings, CABAC                   : Yes
Format settings, ReFrames                : 8 frames
Codec ID                                 : V_MPEG4/ISO/AVC
Duration                                 : 2h 48mn
Bit rate                                 : 2 600 Kbps
Width                                    : 1 024 pixels
Height                                   : 552 pixels
Display aspect ratio                     : 1.85:1
Frame rate mode                          : Constant
Frame rate                               : 23.976 fps
Color space                              : YUV
Chroma subsampling                       : 4:2:0
Bit depth                                : 8 bits
Scan type                                : Progressive
Bits/(Pixel*Frame)                       : 0.192
Stream size                              : 2.99 GiB (83%)
Writing library                          : x264 core 116 r2074 2641b9e
Encoding settings                        : cabac=1 / ref=8 / deblock=1:-2:-2 / analyse=0x3:0x133 / me=umh / subme=11 / psy=1 / psy_rd=1.00:0.00 / mixed_ref=1 / me_range=48 / chroma_me=1 / trellis=2 / 8x8dct=1 / cqm=0 / deadzone=21,11 / fast_pskip=0 / chroma_qp_offset=-2 / threads=3 / sliced_threads=0 / nr=0 / decimate=1 / interlaced=0 / bluray_compat=0 / constrained_intra=0 / bframes=8 / b_pyramid=2 / b_adapt=2 / b_bias=0 / direct=3 / weightb=1 / open_gop=0 / weightp=2 / keyint=240 / keyint_min=23 / scenecut=40 / intra_refresh=0 / rc=2pass / mbtree=0 / bitrate=2600 / ratetol=1.0 / qcomp=0.60 / qpmin=10 / qpmax=51 / qpstep=4 / cplxblur=20.0 / qblur=0.5 / ip_ratio=1.40 / pb_ratio=1.30 / aq=2:1.00
Language                                 : English
Default                                  : Yes
Forced                                   : No
DURATION                                 : 02:48:21.050000000
NUMBER_OF_FRAMES                         : 242183
NUMBER_OF_BYTES                          : 3280390637
_STATISTICS_WRITING_APP                  : mkvmerge v7.9.0 ('Birds') 64bit
_STATISTICS_WRITING_DATE_UTC             : 2015-07-11 04:00:53
_STATISTICS_TAGS                         : BPS DURATION NUMBER_OF_FRAMES NUMBER_OF_BYTES

Audio
ID                                       : 2
Format                                   : AC-3
Format/Info                              : Audio Coding 3
Mode extension                           : CM (complete main)
Format settings, Endianness              : Big
Codec ID                                 : A_AC3
Duration                                 : 2h 48mn
Bit rate mode                            : Constant
Bit rate                                 : 448 Kbps
Channel(s)                               : 6 channels
Channel positions                        : Front: L C R, Side: L R, LFE
Sampling rate                            : 48.0 KHz
Bit depth                                : 16 bits
Compression mode                         : Lossy
Stream size                              : 539 MiB (15%)
Title                                    : Чадов
Language                                 : Russian
Default                                  : Yes
Forced                                   : No
Семпл: http://multi-up.com/1058007

picpicpic
Для увеличения картинки щелкните мышкой по превью
Похожие темы
Форум Тема Автор Торрент Отв. Посл. сооб.
Зарубежное кино [DVDRip, Low-Res HDRip, и т.д.] Спасти рядового Райана / Saving Private Ryan (Стивен Спилберг /Steven Spielberg) [1998 г., боевик, драма, военный, история, BDRip] Dub Gaarochi
1 | 0

0 | 1169

23

10.05.2013 07:15

Архив Спасти рядового Райана / Saving Private Ryan (1998) DvDRip (Стивен Спилберг) [1998 г., Военный, Боевик, Драма, DVDRip] Dmitriy
0 | 0

3 | 1169

12

08.10.2010 21:24

Архив Спасти рядового Райана / Врятувати рядового Райана / Saving Private Ryan (Стивен Спилберг) [1998 г., боевик, драма, военный, HDTVRip] Паукан
0 | 0

5 | 1770

8

16.06.2011 08:09

Архив Спасти рядового Райана / Saving Private Rayan (Стивен Спилберг) [1998 г., боевик, драма, военный, HDTVRip] Mahone
0 | 0

3 | 1940

0

16.06.2011 08:09

makkol Пол:Муж

01-Авг-2015 13:35

 !  - обложку нужно центровать вправо (с кодом [img=right] в начале)
- русское и оригинальное название в шапке и заголовке нужно разделять дробью, а не скобками: Спасти рядового Райана / Saving Private Ryan
- автора озвучки в шапке указывать необязательно, но если делаете это - ставьте его в конце: AVO (Чадов)
- видеобитрейт в Kbps
- а вот в посте переводчика указать нужно, можно отдельно, можно вставить в Аудио (после [авторский])
- [ненорматив] в заголовке - тоже лишнее, нужно об этом написать в самой новости. Например, после Аудио вставить строчку:
Внимание: Присутствует ненормативная лексика!
- Ну и наконец скриншоты. Они не от этого рипа. Разрешение скриншотов должно совпадать с разрешением видео. Нужно заменить.

Исправьте всё пожалуйста. И ещё, на будущее, фильмы HD и FullHD качества (в данном случае 1024х552) нужно постить в разделе ''Фильмы, сериалы, мультфильмы высокого качества DVD и HD-Video''

Яндекс.Метрика powered by Sphinx


В Н И М А Н И Е
Сайт не распространяет и не хранит электронные версии произведений, а лишь бесплатно и без коммерческой выгоды (не требуя взамен платы,
SMS и т.д.) предоставляет доступ к создаваемому пользователями каталогу ссылок на торрент-файлы, которые содержат только списки хеш-сумм.
Убедительная просьба с жалобами обращаться напрямую к пользователю, разместившему торрент файл.

Вверх