Loading...
Error

Человек из ниоткуда / Ajeossi / The Man from Nowhere (Ли Чжон Бом / Lee Jeong Beom) [2010 г., боевик, триллер, криминал, BDRip] AVO HQ Underverse

Статистика раздачи
Размер:  2,17 GB   |    Зарегистрирован:  2 года 4 месяца   |    Скачан:  63 раза
Сидов:  1  |  0 KB/s  ]   Личеров:  0  |  0 KB/s  ]

* - сиды/пиры с внешних источников

   
 
Автор Сообщение

HQ Underverse 

10-Июл-2015 14:49

Человек из ниоткуда / Ajeossi / The Man from Nowhere


Год выпуска: 2010
Жанр: боевик, триллер, криминал
Страна: Корея Южная
Режиссер: Ли Чжон Бом / Lee Jeong Beom
В ролях: Вон Бин, Ким Сэ Рон, Ким Тэ Хун, Ким Хи Вон, Ким Сон О, Танаёнг Вонгтракул, Ли Чжон Пхиль, Хё-Со Ким, Сон Ён Чан
Сюжет фильма:
Чха Тхэ Сик — скромный владелец ломбарда. Девочка Чон Соме его соседка и дочь матери-одиночки, которая работает в баре танцовщицей и не столько увлекается воспитанием ребенка, сколько ищет острых ощущений на свою и без того повидавшую виды, неудавшуюся жизнь. И вот однажды мать Соме вместе со своим парнем решает обокрасть наркокурьера, который регулярно появляется в заведении, где она выступает…

  • Мировая премьера: 5 августа 2010

/
Качество видео: BDRip

Продолжительность: 01:59:18
Формат: avi
Видео: XviD, 720x304, 2148 kbps
Аудио: русский, одноголосый закадровый [профессиональный, Сербин], AC3 5.1, 448 kbps

Семпл: http://multi-up.com/1057922

Релиз группы:

Код:

General
Complete name                    : D:\Video\Movies\Releases\Man.from.Nowhere.2010.BDRip.XviD.AC3.Rus.AVO.HQ.Underverse.avi
Format                           : AVI
Format/Info                      : Audio Video Interleave
Format profile                   : OpenDML
File size                        : 2.17 GiB
Duration                         : 1h 59mn
Overall bit rate                 : 2 608 Kbps
Writing application              : VirtualDubMod 1.5.10.3 | www.virtualdub-fr.org || (build 2550/release)
Writing library                  : VirtualDubMod build 2550/release

Video
ID                               : 0
Format                           : MPEG-4 Visual
Format profile                   : Streaming Video@L1
Format settings, BVOP            : Yes
Format settings, QPel            : No
Format settings, GMC             : No warppoints
Format settings, Matrix          : Custom
Codec ID                         : XVID
Codec ID/Hint                    : XviD
Duration                         : 1h 59mn
Bit rate                         : 2 148 Kbps
Width                            : 720 pixels
Height                           : 304 pixels
Display aspect ratio             : 2.35
Frame rate                       : 23.976 fps
Resolution                       : 24 bits
Colorimetry                      : 4:2:0
Scan type                        : Progressive
Bits/(Pixel*Frame)               : 0.409
Stream size                      : 1.79 GiB (82%)
Writing library                  : XviD 66

Audio
ID                               : 1
Format                           : AC-3
Format/Info                      : Audio Coding 3
Codec ID                         : 2000
Duration                         : 1h 59mn
Bit rate mode                    : Constant
Bit rate                         : 448 Kbps
Channel(s)                       : 6 channels
Channel positions                : Front: L C R, Surround: L R, LFE
Sampling rate                    : 48.0 KHz
Stream size                      : 382 MiB (17%)
Alignment                        : Split accross interleaves
Interleave, duration             : 42 ms (1.00 video frame)
Interleave, preload duration     : 500 ms
Title                            : Rus AVO (Serbin)
picpicpicpic
Для увеличения картинки щелкните мышкой по превью

Этот торрент недоступен для скачивания без регистрации, однако доступен по публичной magnet-ссылке (источники с публичных трекеров). Перед использованием ссылки прочтите, пожалуйста Пользовательское соглашение, а также как можно дольше оставайтесь на раздаче! Для того, чтобы скачать сам торрент-файл (который видит больше источников), а также для того, чтобы поблагодарить релизера, вам необходимо зарегистрироваться. Если регистрироваться лень - вы можете также попробовать скачать релиз по нашим партнерским ссылкам ниже.

[underverse.su].t55826.torrent
Трекер: Зарегистрирован   [ 10.07.2015 15:02 ]  

Статус: проверено (by Паукан at 10.07.2015 21:21)
Поблагодарили: 3 человека
Тип торрента: публичный - доступные источники с открытых трекеров: 
Размер: 2,17 GB (занимает 1/2 DVDR, для записи нужно 1 болванка DVDR/RW)
 
 
Похожие темы
Форум Тема Автор Торрент Отв. Посл. сооб.
Зарубежное кино [DVDRip, Low-Res HDRip, и т.д.] Человек из ниоткуда / Ajeossi / The Man From Nowhere (Ли Чжон Бом) [2010 г., боевик, триллер, криминал, HDRip] AVO garry
2 | 0

0 | 1068

23

15.10.2012 17:37

Зарубежное кино [DVDRip, Low-Res HDRip, и т.д.] Человек из ниоткуда / Ajeossi / The Man From Nowhere (Ли Чжон Бом) [2010 г., боевик, триллер, криминал, HDRip] MVO Паукан
3 | 0

0 | 1985

26

17.06.2013 07:07

Зарубежное кино [DVDRip, Low-Res HDRip, и т.д.] Человек из стали / Man of Steel (Зак Снайдер) [2013 г., фантастика, фэнтези, боевик, приключения, HDRip] Dub + Original 90ytr90
3 | 0

0 | 761

13

18.10.2013 16:54

Зарубежное кино [DVDRip, Low-Res HDRip, и т.д.] Человек из стали / Man of Steel (Зак Снайдер) [2013 г., фантастика, фэнтези, боевик, приключения, HDRip] Dub 90ytr90
0 | 0

0 | 1211

87

18.10.2013 17:10

Зарубежное кино [DVDRip, Low-Res HDRip, и т.д.] Человек из стали / Man of Steel (Зак Снайдер) [2013 г., фантастика, фэнтези, боевик, приключения, BDRip-AVC] Dub + Sub (Eng) 90ytr90
1 | 0

0 | 1824

19

18.10.2013 19:40

Зарубежное кино [DVDRip, Low-Res HDRip, и т.д.] Человек из стали / Man of Steel (Зак Снайдер) [2013 г., фантастика, фэнтези, боевик, приключения, ВDRip] Dub 90ytr90
0 | 0

0 | 810

40

19.10.2013 05:50

Зарубежное кино [DVDRip, Low-Res HDRip, и т.д.] Человек из Рино / Man from Reno (Дэйв Бойл) [2014 г., триллер, драма, криминал, детектив, WEB-DLRip] MVO makkol
0 | 0

0 | 1014

18

26.03.2016 22:33

T Наше кино [DVDRip, Low-Res HDRip, и т.д.] Человек из будущего (Роман Артемьев) [2016 г., комедия, WEB-DLRip] makkol
0 | 0

0 | 373

5

22.12.2016 15:12

T Наше кино [DVDRip, Low-Res HDRip, и т.д.] Человек из будущего (Роман Артемьев) [2016 г., комедия, WEB-DLRip] makkol
5 | 0

0 | 353

14

22.12.2016 14:55

Наше кино [DVDRip, Low-Res HDRip, и т.д.] Человек из банки (Иван Кульнев) [2012 г., комедия, DVDRip] RG NewCinema
0 | 0

0 | 1105

48

29.11.2012 12:45



Последний раз редактировалось: HQ Underverse (29.08.2015 17:29), всего редактировалось 1 раз

DrBond Пол:Муж

14-Июл-2015 18:00

Южная Корея умеет создавать шедевры. Фильм крутой! Очень динамичный и показывает реальную жестокость, которая есть в нашем мире. Рекомендую к просмотру!
=@
С детьми смотреть не стоит, очень много сцен насилия!

Яндекс.Метрика powered by Sphinx


В Н И М А Н И Е
Сайт не распространяет и не хранит электронные версии произведений, а лишь бесплатно и без коммерческой выгоды (не требуя взамен платы,
SMS и т.д.) предоставляет доступ к создаваемому пользователями каталогу ссылок на торрент-файлы, которые содержат только списки хеш-сумм.
Убедительная просьба с жалобами обращаться напрямую к пользователю, разместившему торрент файл.

Вверх