Loading...
Error

Ужаленные / Stung (Бенжамин Диез) [2015 г., Ужасы, Мелодрама, Комедия, WEB-DLRip-AVC] VO (RUS) + Original (ENG) + Subs (ENG)

Статистика раздачи
Размер:  1,4 GB   |    Зарегистрирован:  1 год 4 месяца   |    Скачан:  6 раз

Полного источника не было: 1 год 4 месяца

Сидов:  0  |  0 KB/s  ]   Личеров:  0  |  0 KB/s  ]

* - сиды/пиры с внешних источников

   
 
Автор Сообщение

Ведьмочка Пол:Жен

09-Июл-2015 00:30

Ужаленные / Stung


Страна: Германия , США
Год выпуска: 2015
Жанр: Ужасы, Мелодрама, Комедия
Продолжительность: 01:27:39
Режиссёр: Бенжамин Диез
В ролях: Клифтон Коллинз мл., Джессика Кук, Тони де Майер, Лэнс Хенриксен, Флорентина Ламе, Дэвид Мастерсон, Мэтт О`Лири, Сесилия Пилладо, Даниэль Риззо
Сюжет фильма:
Вечеринка-маскарад заканчивается кровавым кошмаром, когда на людей нападают гигантские осы-убийцы, мутировавшие из обычных ос в огромных хищников. Двое молодых людей из обслуги, работающих на вечеринке, пытаются выжить в окружившем их ужасе. Параллельно у них развиваются чувства симпатии друг к другу…

Озвучивание:
  • Любительский, Одноголосный, Русский [ХиХиДок]
  • Оригинал, Английский

Качество видео: WEB-DLRip-AVC
Формат: MKV

Видео: AVC, 1024x424 (2.40:1), 23.976, ~1711 Кбит/сек
Аудио #1: AC-3, 192 Кбит/сек, 2 Канала, 44.1 КГц
Аудио #2: AC-3, 384 Кбит/сек, 6 Каналов, 48.0 КГц

Субтитры: UTF-8 [Английские, Полные]

Rip by:



Общее
Уникальный идентификатор : 213366322251175189669171451772698450373 (0xA084DBE1D5F9CACDA1BE70756B4159C5)
Полное имя : \Stung.2015.xixidok.WEB-DLRip.AVC.ExKinoRay.mkv
Формат : Matroska
Версия формата : Version 4 / Version 2
Размер файла : 1,40 Гбайт
Продолжительность : 1 ч. 27 м.
Общий поток : 2279 Кбит/сек
Название фильма : Stung 2015 from ExKinoRay
Дата кодирования : UTC 2015-07-08 04:03:23
Программа кодирования : mkvmerge v6.6.0 ('The Edge Of The In Between') built on Dec 1 2013 17:55:00
Библиотека кодирования : libebml v1.3.0 + libmatroska v1.4.1

Видео
Идентификатор : 1
Формат : AVC
Формат/Информация : Advanced Video Codec
Профиль формата : High@L4.1
Параметр CABAC формата : Да
Параметр ReFrames формата : 10 кадров
Идентификатор кодека : V_MPEG4/ISO/AVC
Продолжительность : 1 ч. 27 м.
Битрейт : 1711 Кбит/сек
Ширина : 1024 пикселя
Высота : 424 пикселя
Соотношение сторон : 2,40:1
Режим частоты кадров : Постоянный
Частота кадров : 23,976 кадра/сек
Цветовое пространство : YUV
Субдискретизация насыщенности : 4:2:0
Битовая глубина : 8 бит
Тип развёртки : Прогрессивная
Бит/(Пиксели*Кадры) : 0.164
Размер потока : 1,02 Гбайт (73%)
Заголовок : Enigma
Библиотека кодирования : x264 core 133 r2334 a3ac64b
Настройки программы : cabac=1 / ref=10 / deblock=1:-2:-2 / analyse=0x3:0x113 / me=umh / subme=10 / psy=1 / psy_rd=1.00:0.10 / mixed_ref=1 / me_range=32 / chroma_me=1 / trellis=2 / 8x8dct=1 / cqm=0 / deadzone=21,11 / fast_pskip=0 / chroma_qp_offset=-3 / threads=12 / lookahead_threads=2 / sliced_threads=0 / nr=0 / decimate=0 / interlaced=0 / bluray_compat=0 / constrained_intra=0 / bframes=9 / b_pyramid=2 / b_adapt=2 / b_bias=0 / direct=3 / weightb=1 / open_gop=0 / weightp=2 / keyint=240 / keyint_min=23 / scenecut=40 / intra_refresh=0 / rc_lookahead=40 / rc=2pass / mbtree=0 / bitrate=1711 / ratetol=1.0 / qcomp=0.60 / qpmin=0 / qpmax=51 / qpstep=4 / cplxblur=20.0 / qblur=0.5 / vbv_maxrate=50000 / vbv_bufsize=62500 / nal_hrd=none / ip_ratio=1.40 / pb_ratio=1.30 / aq=1:1.00
Default : Да
Forced : Нет
Цветовой диапазон : Limited
Основные цвета : BT.709
Характеристики трансфера : BT.709
Коэффициенты матрицы : BT.709

Аудио #1
Идентификатор : 2
Формат : AC-3
Формат/Информация : Audio Coding 3
Расширение режима : CM (complete main)
Параметр Endianness формата : Big
Идентификатор кодека : A_AC3
Продолжительность : 1 ч. 27 м.
Вид битрейта : Постоянный
Битрейт : 192 Кбит/сек
Каналы : 2 канала
Расположение каналов : Front: L R
Частота : 44,1 КГц
Метод сжатия : С потерями
Размер потока : 120 Мбайт (8%)
Заголовок : xixidok
Язык : Russian
Default : Нет
Forced : Нет

Аудио #2
Идентификатор : 3
Формат : AC-3
Формат/Информация : Audio Coding 3
Расширение режима : CM (complete main)
Параметр Endianness формата : Big
Идентификатор кодека : A_AC3
Продолжительность : 1 ч. 27 м.
Вид битрейта : Постоянный
Битрейт : 384 Кбит/сек
Каналы : 6 каналов
Расположение каналов : Front: L C R, Side: L R, LFE
Частота : 48,0 КГц
Метод сжатия : С потерями
Размер потока : 241 Мбайт (17%)
Язык : English
Default : Нет
Forced : Нет

Текст
Идентификатор : 4
Формат : UTF-8
Идентификатор кодека : S_TEXT/UTF8
Идентификатор кодека/Информация : UTF-8 Plain Text
Язык : English
Default : Нет
Forced : Нет

Меню
00:00:00.000 : en:1
00:10:11.000 : en:2
00:21:11.000 : en:3
00:31:35.000 : en:4
00:43:22.000 : en:5
00:53:27.000 : en:6
01:07:06.000 : en:7
01:18:47.000 : en:8


picpicpicpicpic
Для увеличения картинки щелкните мышкой по превью



Этот торрент недоступен для скачивания без регистрации, однако доступен по публичной magnet-ссылке (источники с публичных трекеров). Перед использованием ссылки прочтите, пожалуйста Пользовательское соглашение, а также как можно дольше оставайтесь на раздаче! Для того, чтобы скачать сам торрент-файл (который видит больше источников), а также для того, чтобы поблагодарить релизера, вам необходимо зарегистрироваться. Если регистрироваться лень - вы можете также попробовать скачать релиз по нашим партнерским ссылкам ниже.

[underverse.su].t55783.torrent
Трекер: Зарегистрирован   [ 09.07.2015 00:30 ]  

Статус: проверено (by Ведьмочка at 09.07.2015 00:30)
Поблагодарили: 1 человек
Тип торрента: публичный - доступные источники с открытых трекеров: 
Размер: 1,4 GB (занимает 0,32 DVDR, для записи нужно 1 болванка DVDR/RW)
 
 
Похожие темы
Форум Тема Автор Торрент Отв. Посл. сооб.
Зарубежное кино [DVDRip, Low-Res HDRip, и т.д.] Ужаленные / Stung (Бенжамин Диез) [2015 г., Ужасы, Мелодрама, Комедия, WEB-DLRip] VO (RUS) + Original (ENG) Ведьмочка
4 | 0

0 | 427

13

09.07.2015 00:23

T Зарубежное кино [DVDRip, Low-Res HDRip, и т.д.] Ужаленные / Stung (Бенжамин Диез) [2015 г., ужасы, комедия, HDRip] MVO makkol
0 | 0

0 | 239

8

04.11.2015 22:23

Зарубежное кино [HDDVDRip / BDRip / WEB-DL / HDTV 1080/720р] Ужаленные / Stung (Бенжамин Диез) [2015 г., Ужасы, Мелодрама, Комедия, WEB-DL 720p] VO (RUS) + Original (ENG) + Subs (ENG) Ведьмочка
9 | 0

0 | 567

12

09.07.2015 00:36

T Зарубежное кино [HDDVDRip / BDRip / WEB-DL / HDTV 1080/720р] Ужаленные / Stung (Бенжамин Диез) [2015 г., ужасы, комедия, BDRip 1080p] MVO + Original makkol
2 | 0

0 | 223

1

04.11.2015 22:36


Яндекс.Метрика powered by Sphinx


В Н И М А Н И Е
Сайт не распространяет и не хранит электронные версии произведений, а лишь бесплатно и без коммерческой выгоды (не требуя взамен платы,
SMS и т.д.) предоставляет доступ к создаваемому пользователями каталогу ссылок на торрент-файлы, которые содержат только списки хеш-сумм.
Убедительная просьба с жалобами обращаться напрямую к пользователю, разместившему торрент файл.

Вверх