Loading...
Error

Ужаленные / Stung (Бенжамин Диез) [2015 г., Ужасы, Мелодрама, Комедия, WEB-DLRip] VO (RUS) + Original (ENG)

Статистика раздачи
Размер:  1,45 GB   |    Зарегистрирован:  1 год 5 месяцев   |    Скачан:  13 раз

Полного источника не было: 5 месяцев 8 дней

Сидов:  0  |  0 KB/s  ]   Личеров:  0  |  0 KB/s  ]

* - сиды/пиры с внешних источников

   
 
Автор Сообщение

Ведьмочка Пол:Жен

09-Июл-2015 00:23

Ужаленные / Stung


Страна: Германия , США
Год выпуска: 2015
Жанр: Ужасы, Мелодрама, Комедия
Продолжительность: 01:27:39
Режиссёр: Бенжамин Диез
В ролях: Клифтон Коллинз мл., Джессика Кук, Тони де Майер, Лэнс Хенриксен, Флорентина Ламе, Дэвид Мастерсон, Мэтт О`Лири, Сесилия Пилладо, Даниэль Риззо
Сюжет фильма:
Вечеринка-маскарад заканчивается кровавым кошмаром, когда на людей нападают гигантские осы-убийцы, мутировавшие из обычных ос в огромных хищников. Двое молодых людей из обслуги, работающих на вечеринке, пытаются выжить в окружившем их ужасе. Параллельно у них развиваются чувства симпатии друг к другу…

Озвучивание:
  • Любительский, Одноголосный, Русский [ХиХиДок]
  • Оригинал, Английский

Качество видео: WEB-DLRip
Формат: AVI

Видео: XviD, 720x304 (2.35:1), 23.976, ~1796 Кбит/сек
Аудио #1: AC-3, 192 Кбит/сек, 2 Канала, 44.1 КГц
Аудио #2: AC-3, 384 Кбит/сек, 6 Каналов, 48.0 КГц

Rip by:



Общее
Полное имя : \Stung.2015.xixidok.WEB-DLRip.ExKinoRay.avi
Формат : AVI
Формат/Информация : Audio Video Interleave
Размер файла : 1,45 Гбайт
Продолжительность : 1 ч. 27 м.
Общий поток : 2386 Кбит/сек
Программа кодирования : VirtualDubMod 1.5.10.2 (build 2540/release)
Библиотека кодирования : VirtualDubMod build 2540/release
Авторское право : ExKinoRay

Видео
Идентификатор : 0
Формат : MPEG-4 Visual
Профиль формата : Advanced Simple@L5
Параметр BVOP формата : 1
Параметр QPel формата : Нет
Параметр GMC формата : Без точки перехода
Параметр матрицы формата : Выборочная
Идентификатор кодека : XVID
Идентификатор кодека/Подсказка : XviD
Продолжительность : 1 ч. 27 м.
Битрейт : 1796 Кбит/сек
Ширина : 720 пикселей
Высота : 304 пикселя
Соотношение сторон : 2,35:1
Частота кадров : 23,976 кадра/сек
Цветовое пространство : YUV
Субдискретизация насыщенности : 4:2:0
Битовая глубина : 8 бит
Тип развёртки : Прогрессивная
Метод сжатия : С потерями
Бит/(Пиксели*Кадры) : 0.342
Размер потока : 1,09 Гбайт (75%)
Библиотека кодирования : XviD 73

Аудио #1
Идентификатор : 1
Формат : AC-3
Формат/Информация : Audio Coding 3
Расширение режима : CM (complete main)
Параметр Endianness формата : Big
Идентификатор кодека : 2000
Продолжительность : 1 ч. 27 м.
Вид битрейта : Постоянный
Битрейт : 192 Кбит/сек
Каналы : 2 канала
Расположение каналов : Front: L R
Частота : 44,1 КГц
Метод сжатия : С потерями
Размер потока : 120 Мбайт (8%)
Выравнивание : Разделение по промежуткам
Продолжительность промежутка : 42 мс. (1,00 видеокадр)
Время предзагрузки промежутка : 500 мс.
Заголовок : xixidok

Аудио #2
Идентификатор : 2
Формат : AC-3
Формат/Информация : Audio Coding 3
Расширение режима : CM (complete main)
Параметр Endianness формата : Big
Идентификатор кодека : 2000
Продолжительность : 1 ч. 27 м.
Вид битрейта : Постоянный
Битрейт : 384 Кбит/сек
Каналы : 6 каналов
Расположение каналов : Front: L C R, Side: L R, LFE
Частота : 48,0 КГц
Метод сжатия : С потерями
Размер потока : 240 Мбайт (16%)
Выравнивание : Разделение по промежуткам
Продолжительность промежутка : 42 мс. (1,00 видеокадр)
Время предзагрузки промежутка : 500 мс.


picpicpicpicpic
Для увеличения картинки щелкните мышкой по превью



Этот торрент недоступен для скачивания без регистрации, однако доступен по публичной magnet-ссылке (источники с публичных трекеров). Перед использованием ссылки прочтите, пожалуйста Пользовательское соглашение, а также как можно дольше оставайтесь на раздаче! Для того, чтобы скачать сам торрент-файл (который видит больше источников), а также для того, чтобы поблагодарить релизера, вам необходимо зарегистрироваться. Если регистрироваться лень - вы можете также попробовать скачать релиз по нашим партнерским ссылкам ниже.

[underverse.su].t55782.torrent
Трекер: Зарегистрирован   [ 09.07.2015 00:23 ]  

Статус: проверено (by Ведьмочка at 09.07.2015 00:23)
Поблагодарили: 1 человек
Тип торрента: публичный - доступные источники с открытых трекеров: 
Размер: 1,45 GB (занимает 1/3 DVDR, для записи нужно 1 болванка DVDR/RW)
 
 
Похожие темы
Форум Тема Автор Торрент Отв. Посл. сооб.
Зарубежное кино [DVDRip, Low-Res HDRip, и т.д.] Ужаленные / Stung (Бенжамин Диез) [2015 г., Ужасы, Мелодрама, Комедия, WEB-DLRip-AVC] VO (RUS) + Original (ENG) + Subs (ENG) Ведьмочка
9 | 0

0 | 433

6

09.07.2015 00:30

T Зарубежное кино [DVDRip, Low-Res HDRip, и т.д.] Ужаленные / Stung (Бенжамин Диез) [2015 г., ужасы, комедия, HDRip] MVO makkol
0 | 0

0 | 241

8

04.11.2015 22:23

Зарубежное кино [HDDVDRip / BDRip / WEB-DL / HDTV 1080/720р] Ужаленные / Stung (Бенжамин Диез) [2015 г., Ужасы, Мелодрама, Комедия, WEB-DL 720p] VO (RUS) + Original (ENG) + Subs (ENG) Ведьмочка
9 | 0

0 | 568

12

09.07.2015 00:36

T Зарубежное кино [HDDVDRip / BDRip / WEB-DL / HDTV 1080/720р] Ужаленные / Stung (Бенжамин Диез) [2015 г., ужасы, комедия, BDRip 1080p] MVO + Original makkol
2 | 0

0 | 224

1

04.11.2015 22:36


Яндекс.Метрика powered by Sphinx


В Н И М А Н И Е
Сайт не распространяет и не хранит электронные версии произведений, а лишь бесплатно и без коммерческой выгоды (не требуя взамен платы,
SMS и т.д.) предоставляет доступ к создаваемому пользователями каталогу ссылок на торрент-файлы, которые содержат только списки хеш-сумм.
Убедительная просьба с жалобами обращаться напрямую к пользователю, разместившему торрент файл.

Вверх