Loading...
Error

Форсаж 7 / Furious 7 (Джеймс Ван) [2015 г., Боевик, Триллер, Криминал, WEB-DLRip] Dub (RUS, iTunes Russia)

Статистика раздачи
Размер:  1,37 GB   |    Зарегистрирован:  1 год 4 месяца   |    Скачан:  54 раза

Полного источника не было: 5 часов

Сидов:  0  |  0 KB/s  ]   Личеров:  0  |  0 KB/s  ]

* - сиды/пиры с внешних источников

   
 
Автор Сообщение

Ведьмочка Пол:Жен

08-Июл-2015 23:23

Форсаж 7 / Furious 7
«Месть не знает границ»


Страна: США
Год выпуска: 2015
Жанр: Боевик, Триллер, Криминал
Продолжительность: 02:16:44
Режиссёр: Джеймс Ван
В ролях: Вин Дизель, Пол Уокер, Дуэйн Джонсон, Джейсон Стэйтем, Мишель Родригес, Джордана Брюстер, Тайриз Гибсон, Лудакрис, Эльза Патаки, Лукас Блэк
Сюжет фильма:
Они покорили Токио и Рио, Лос-Анджелес и Лондон. Но мир больше не играет по их правилам. Зной арабских пустынь, неприлично высокие небоскребы, миллионы долларов на колесах и очень, очень знаменитый злодей. Скорость не знает границ.

Озвучивание:
  • Дублированный, Русский [iTunes Russia]

Качество видео: WEB-DLRip
Формат: AVI

Видео: XviD, 720x304 (2.35:1), 23.976, ~1041 Кбит/сек
Аудио: AC-3, 384 Кбит/сек, 6 Каналов, 48.0 КГц



Общее
Полное имя : \Furious.7.2015.HDRip.Rus-C!v.avi
Формат : AVI
Формат/Информация : Audio Video Interleave
Профиль формата : OpenDML
Настройки формата : rec
Размер файла : 1,37 Гбайт
Продолжительность : 2 ч. 17 м.
Общий поток : 1431 Кбит/сек
Программа кодирования : AVI-Mux GUI 1.17.8.3, Feb 16 201019:42:50

Видео
Идентификатор : 0
Формат : MPEG-4 Visual
Профиль формата : Advanced Simple@L5
Параметр BVOP формата : 2
Параметр QPel формата : Нет
Параметр GMC формата : Без точки перехода
Параметр матрицы формата : Default (MPEG)
Идентификатор кодека : XVID
Идентификатор кодека/Подсказка : XviD
Продолжительность : 2 ч. 17 м.
Битрейт : 1041 Кбит/сек
Ширина : 720 пикселей
Высота : 304 пикселя
Соотношение сторон : 2,35:1
Частота кадров : 23,976 кадра/сек
Цветовое пространство : YUV
Субдискретизация насыщенности : 4:2:0
Битовая глубина : 8 бит
Тип развёртки : Прогрессивная
Метод сжатия : С потерями
Бит/(Пиксели*Кадры) : 0.198
Размер потока : 1023 Мбайт (73%)
Библиотека кодирования : XviD 1.2.1 (UTC 2008-12-04)

Аудио
Идентификатор : 1
Формат : AC-3
Формат/Информация : Audio Coding 3
Расширение режима : CM (complete main)
Параметр Endianness формата : Big
Идентификатор кодека : 2000
Продолжительность : 2 ч. 17 м.
Вид битрейта : Постоянный
Битрейт : 384 Кбит/сек
Каналы : 6 каналов
Расположение каналов : Front: L C R, Side: L R, LFE
Частота : 48,0 КГц
Метод сжатия : С потерями
Размер потока : 377 Мбайт (27%)
Выравнивание : Соединение по промежуткам
Продолжительность промежутка : 64 мс. (1,53 видеокадра)
Время предзагрузки промежутка : 192 мс.


picpicpicpicpic
Для увеличения картинки щелкните мышкой по превью



Этот торрент недоступен для скачивания без регистрации, однако доступен по публичной magnet-ссылке (источники с публичных трекеров). Перед использованием ссылки прочтите, пожалуйста Пользовательское соглашение, а также как можно дольше оставайтесь на раздаче! Для того, чтобы скачать сам торрент-файл (который видит больше источников), а также для того, чтобы поблагодарить релизера, вам необходимо зарегистрироваться. Если регистрироваться лень - вы можете также попробовать скачать релиз по нашим партнерским ссылкам ниже.

[underverse.su].t55778.torrent
Трекер: Зарегистрирован   [ 08.07.2015 23:23 ]  

Статус: T временная (by Ведьмочка at 08.07.2015 23:29)
Поблагодарили: 2 человека
Тип торрента: публичный - доступные источники с открытых трекеров: 
Размер: 1,37 GB (занимает 0,31 DVDR, для записи нужно 1 болванка DVDR/RW)
 
 
Похожие темы
Форум Тема Автор Торрент Отв. Посл. сооб.
T Зарубежное кино [DVDRip, Low-Res HDRip, и т.д.] Форсаж 7 / Furious 7 (Джеймс Ван) [2015 г., Боевик, Триллер, Криминал, WEB-DLRip] Dub (RUS, iTunes Russia) Ведьмочка
14 | 0

0 | 601

28

08.07.2015 23:27

Зарубежное кино [DVDRip, Low-Res HDRip, и т.д.] Форсаж 7 / Furious Seven (Джеймс Ван / James Wan) [2015 г., боевик, триллер, криминал, HDRip] [Theatrical Cut] Dub 90ytr90
101 | 1

0 | 633

10

31.07.2016 14:42

T Зарубежное кино [HDDVDRip / BDRip / WEB-DL / HDTV 1080/720р] Форсаж 7 / Furious 7 (Джеймс Ван) [2015 г., Боевик, Триллер, Криминал, WEB-DL 720p] Dub (RUS, iTunes Russia) Ведьмочка
27 | 0

0 | 503

26

08.07.2015 23:33

T Зарубежное кино [HDDVDRip / BDRip / WEB-DL / HDTV 1080/720р] Форсаж 7 / Furious 7 (Джеймс Ван) [2015 г., Боевик, Триллер, Криминал, WEB-DL 1080p] Dub (RUS, iTunes Russia) Ведьмочка
23 | 0

0 | 852

87

08.07.2015 23:42

Зарубежное кино [HDDVDRip / BDRip / WEB-DL / HDTV 1080/720р] Форсаж 7 / Furious Seven (Джеймс Ван / James Wan) [2015 г., боевик, триллер, криминал, BDRip 720p] [Theatrical Cut] Dub + Original (Eng) + Sub (Rus, Eng) 90ytr90
18 | 1

0 | 576

10

31.07.2016 14:24

T Новинки кино [CAMRip, TS, DVDScr, WP, TC] Форсаж 7 / Furious 7 (Джеймс Ван) [2015 г., боевик, триллер, криминал, TS] DVO [ColdFilm] Паукан
7 | 0

1 | 1486

125

08.04.2015 14:54

T Новинки кино [CAMRip, TS, DVDScr, WP, TC] Форсаж 7 / Furious 7 (Джеймс Ван) [2015 г., боевик, триллер, криминал, TS] Dub Паукан
1 | 0

0 | 1212

49

09.04.2015 12:05

T Новинки кино [CAMRip, TS, DVDScr, WP, TC] Форсаж 7 / Furious 7 (Джеймс Ван) [2015 г., боевик, триллер, криминал, TS] Dub Паукан
1 | 0

2 | 1979

183

14.04.2015 07:01

T Новинки кино [CAMRip, TS, DVDScr, WP, TC] Форсаж 7 / Furious 7 (Джеймс Ван / James Wan) [2015 г., Боевик, Триллер, Криминал, HDTVRip] Dub vitalich24
0 | 0

0 | 1873

216

27.05.2015 16:00


Яндекс.Метрика powered by Sphinx


В Н И М А Н И Е
Сайт не распространяет и не хранит электронные версии произведений, а лишь бесплатно и без коммерческой выгоды (не требуя взамен платы,
SMS и т.д.) предоставляет доступ к создаваемому пользователями каталогу ссылок на торрент-файлы, которые содержат только списки хеш-сумм.
Убедительная просьба с жалобами обращаться напрямую к пользователю, разместившему торрент файл.

Вверх