Loading...
Error

Дальняя дорога / The Longest Ride (Джордж Тиллман мл.) [2015 г., Драма, Мелодрама, HDRip] Dub (RUS, iTunes Russia)

Статистика раздачи
Размер:  1,46 GB   |    Зарегистрирован:  1 год 5 месяцев   |    Скачан:  42 раза
Сидов:  1  |  0 KB/s  ]   Личеров:  0  |  0 KB/s  ]

* - сиды/пиры с внешних источников

   
 
Автор Сообщение

Ведьмочка Пол:Жен

08-Июл-2015 21:21

Дальняя дорога / The Longest Ride


Страна: США
Год выпуска: 2015
Жанр: Драма, Мелодрама
Продолжительность: 02:08:18
Режиссёр: Джордж Тиллман мл.
В ролях: Скотт Иствуд, Бритт Робертсон, Алан Алда, Джек Хьюстон, Уна Чаплин, Мелисса Бенойст, Лолита Давидович, Элеа Оберон, Кейт Форбс, Тьяго Риани
Сюжет фильма:
Люк — экс-чемпион по родео, раздумывающий над возвращением в спорт. София — выпускница колледжа, получившая заманчивое предложение о работе в сфере искусства в Нью-Йорке. В то время как молодые люди пытаются сделать нелегкий выбор между чувствами и мечтами, жизнь сталкивает их со стариком Айрой. Воспоминания нового друга о его полувековых отношениях с женой вдохновляют Софию и Люка на главные решения в их жизни. Два поколения, две истории, вечная любовь.

Озвучивание:
  • Дублированный, Русский [iTunes Russia]

Качество видео: HDRip
Формат: AVI

Видео: XviD, 720x304 (2.35:1), 23.976, ~1233 Кбит/сек
Аудио: AC-3, 384 Кбит/сек, 6 Каналов, 48.0 КГц



Общее
Полное имя : \The.Longest.Ride.2015.D.HDRip.1.45GB.avi
Формат : AVI
Формат/Информация : Audio Video Interleave
Размер файла : 1,46 Гбайт
Продолжительность : 2 ч. 8 м.
Общий поток : 1626 Кбит/сек
Программа кодирования : VirtualDubMod 1.5.10.3 | www.virtualdub-fr.org || (build 2550/release)
Библиотека кодирования : VirtualDubMod build 2550/release

Видео
Идентификатор : 0
Формат : MPEG-4 Visual
Профиль формата : Advanced Simple@L5
Параметр BVOP формата : 2
Параметр QPel формата : Нет
Параметр GMC формата : Без точки перехода
Параметр матрицы формата : Default (MPEG)
Режим смешивания : Сжатый битовый поток
Идентификатор кодека : XVID
Идентификатор кодека/Подсказка : XviD
Продолжительность : 2 ч. 8 м.
Битрейт : 1233 Кбит/сек
Ширина : 720 пикселей
Высота : 304 пикселя
Соотношение сторон : 2,35:1
Частота кадров : 23,976 кадра/сек
Цветовое пространство : YUV
Субдискретизация насыщенности : 4:2:0
Битовая глубина : 8 бит
Тип развёртки : Прогрессивная
Метод сжатия : С потерями
Бит/(Пиксели*Кадры) : 0.235
Размер потока : 1,11 Гбайт (76%)
Библиотека кодирования : XviD 1.2.1 (UTC 2008-12-04)

Аудио
Идентификатор : 1
Формат : AC-3
Формат/Информация : Audio Coding 3
Расширение режима : CM (complete main)
Параметр Endianness формата : Big
Идентификатор кодека : 2000
Продолжительность : 2 ч. 8 м.
Вид битрейта : Постоянный
Битрейт : 384 Кбит/сек
Каналы : 6 каналов
Расположение каналов : Front: L C R, Side: L R, LFE
Частота : 48,0 КГц
Метод сжатия : С потерями
Размер потока : 352 Мбайт (24%)
Выравнивание : Разделение по промежуткам
Продолжительность промежутка : 42 мс. (1,00 видеокадр)
Время предзагрузки промежутка : 500 мс.


picpicpicpicpic
Для увеличения картинки щелкните мышкой по превью



Этот торрент недоступен для скачивания без регистрации, однако доступен по публичной magnet-ссылке (источники с публичных трекеров). Перед использованием ссылки прочтите, пожалуйста Пользовательское соглашение, а также как можно дольше оставайтесь на раздаче! Для того, чтобы скачать сам торрент-файл (который видит больше источников), а также для того, чтобы поблагодарить релизера, вам необходимо зарегистрироваться. Если регистрироваться лень - вы можете также попробовать скачать релиз по нашим партнерским ссылкам ниже.

[underverse.su].t55773.torrent
Трекер: Зарегистрирован   [ 08.07.2015 21:21 ]  

Статус: T временная (by Ведьмочка at 08.07.2015 21:37)
Поблагодарили: 1 человек
Тип торрента: публичный - доступные источники с открытых трекеров: 
Размер: 1,46 GB (занимает 1/3 DVDR, для записи нужно 1 болванка DVDR/RW)
 
 
Похожие темы
Форум Тема Автор Торрент Отв. Посл. сооб.
T Зарубежное кино [DVDRip, Low-Res HDRip, и т.д.] Дальняя дорога / The Longest Ride (Джордж Тиллман мл.) [2015 г., Драма, Мелодрама, HDRip] Dub (RUS, iTunes Russia) Ведьмочка
23 | 0

0 | 684

19

08.07.2015 21:24

T Зарубежное кино [HDDVDRip / BDRip / WEB-DL / HDTV 1080/720р] Дальняя дорога / The Longest Ride (Джордж Тиллман мл.) [2015 г., Драма, Мелодрама, BDRip 720p] Dub (RUS, iTunes Russia) + Original (ENG) + Comments (ENG) + Subs (ENG) Ведьмочка
33 | 0

0 | 478

10

08.07.2015 21:32

T Зарубежное кино [HDDVDRip / BDRip / WEB-DL / HDTV 1080/720р] Дальняя дорога / The Longest Ride (Джордж Тиллман мл.) [2015 г., Драма, Мелодрама, BDRip 1080p] Dub (RUS, iTunes Russia) + Original (ENG) + Comments (ENG) + Subs (ENG) Ведьмочка
36 | 3

0 | 491

6

08.07.2015 21:46


Яндекс.Метрика powered by Sphinx


В Н И М А Н И Е
Сайт не распространяет и не хранит электронные версии произведений, а лишь бесплатно и без коммерческой выгоды (не требуя взамен платы,
SMS и т.д.) предоставляет доступ к создаваемому пользователями каталогу ссылок на торрент-файлы, которые содержат только списки хеш-сумм.
Убедительная просьба с жалобами обращаться напрямую к пользователю, разместившему торрент файл.

Вверх