Loading...
Error

Зверство на голубом экране / Wild in Blue (Мэттью Берковитц) [2014 г., ужасы, триллер, HDRip] VO

Статистика раздачи
Размер:  1,44 GB   |    Зарегистрирован:  1 год 4 месяца   |    Скачан:  17 раз

Полного источника не было: 11 месяцев

Сидов:  0  |  0 KB/s  ]   Личеров:  0  |  0 KB/s  ]

* - сиды/пиры с внешних источников

   
 
Автор Сообщение

makkol Пол:Муж

08-Июл-2015 15:05

Зверство на голубом экране / Wild in Blue


Год выпуска: 2014
Жанр: ужасы, триллер
Производство: США [Leef Entertainment Group, Mercury Sound Studios, Nero-Films]
Режиссер: Мэттью Берковитц
В ролях: Фрэнк Сермак мл., Шарлотта Эллен Прайс, Стив Рейлсбэк, Карен Блэк, Дэйви Чейз, Маркос Матео Очоа, Андреа Лоуелл, Оуэн Тиг, Кэролайн Митчелл, Эйдан Люк Фридберг
Сюжет фильма:
Во время съемок фильма садистские отношения режиссёра к женщинам, как развлечение убийцы с потенциальной жертвой заставляют его глубоко задуматься над своей жизнью.

  • Мировая премьера: 24 апреля 2015


Перевод: Куценко
Озвучивание: datynet

Качество видео: HDRip

Продолжительность: 01:25:28
Формат: AVI
Видео: XviD, 704x368, 23.976 fps, 1962 kbps
Аудио: русский, любительский одноголосый закадровый, AC3 5.1, 48 kHz, 448 kbps

Внимание: Присутствует ненормативная лексика!

Код:

Общее
Полное имя                               : Wild.in.Blue.2014.L1.HDRip.avi
Формат                                   : AVI
Формат/Информация                        : Audio Video Interleave
Размер файла                             : 1,44 Гбайт
Продолжительность                        : 1 ч. 25 м.
Общий поток                              : 2420 Кбит/сек
Программа кодирования                    : VirtualDubMod 1.5.10.3 | www.virtualdub-fr.org || (build 2550/release)
Библиотека кодирования                   : VirtualDubMod build 2550/release

Видео
Идентификатор                            : 0
Формат                                   : MPEG-4 Visual
Профиль формата                          : Advanced Simple@L5
Параметр BVOP формата                    : 1
Параметр QPel формата                    : Нет
Параметр GMC формата                     : Без точки перехода
Параметр матрицы формата                 : Выборочная
Идентификатор кодека                     : XVID
Идентификатор кодека/Подсказка           : XviD
Продолжительность                        : 1 ч. 25 м.
Битрейт                                  : 1962 Кбит/сек
Ширина                                   : 704 пикселя
Высота                                   : 368 пикселей
Соотношение сторон                       : 1,913
Частота кадров                           : 23,976 кадра/сек
Цветовое пространство                    : YUV
Субдискретизация насыщенности            : 4:2:0
Битовая глубина                          : 8 бит
Тип развёртки                            : Прогрессивная
Метод сжатия                             : С потерями
Бит/(Пиксели*Кадры)                      : 0.301
Размер потока                            : 1,11 Гбайт (77%)
Библиотека кодирования                   : XviD 73

Аудио
Идентификатор                            : 1
Формат                                   : AC-3
Формат/Информация                        : Audio Coding 3
Расширение режима                        : CM (complete main)
Параметр Endianness формата              : Big
Идентификатор кодека                     : 2000
Продолжительность                        : 1 ч. 25 м.
Вид битрейта                             : Постоянный
Битрейт                                  : 448 Кбит/сек
Каналы                                   : 6 каналов
Расположение каналов                     : Front: L C R, Side: L R, LFE
Частота                                  : 48,0 КГц
Битовая глубина                          : 16 бит
Метод сжатия                             : С потерями
Размер потока                            : 274 Мбайт (19%)
Выравнивание                             : Разделение по промежуткам
picpicpicpicpic
Для увеличения картинки щелкните мышкой по превью

Этот торрент недоступен для скачивания без регистрации, однако доступен по публичной magnet-ссылке (источники с публичных трекеров). Перед использованием ссылки прочтите, пожалуйста Пользовательское соглашение, а также как можно дольше оставайтесь на раздаче! Для того, чтобы скачать сам торрент-файл (который видит больше источников), а также для того, чтобы поблагодарить релизера, вам необходимо зарегистрироваться. Если регистрироваться лень - вы можете также попробовать скачать релиз по нашим партнерским ссылкам ниже.

[underverse.su].t55770.torrent
Трекер: Зарегистрирован   [ 08.07.2015 15:05 ]  

Статус: проверено (by Ведьмочка at 08.07.2015 21:11)
Поблагодарили: 1 человек
Тип торрента: публичный - доступные источники с открытых трекеров: 
Размер: 1,44 GB (занимает 0,33 DVDR, для записи нужно 1 болванка DVDR/RW)
 
 

Яндекс.Метрика powered by Sphinx


В Н И М А Н И Е
Сайт не распространяет и не хранит электронные версии произведений, а лишь бесплатно и без коммерческой выгоды (не требуя взамен платы,
SMS и т.д.) предоставляет доступ к создаваемому пользователями каталогу ссылок на торрент-файлы, которые содержат только списки хеш-сумм.
Убедительная просьба с жалобами обращаться напрямую к пользователю, разместившему торрент файл.

Вверх