Loading...
Error

Резня зомби 2: Рейх мёртвых / Zombie Massacre 2: Reich of the Dead (Люка Бони, Марко Ристори) [2015 г., ужасы, военный, DVDRip] VO + Original

Статистика раздачи
Размер:  1,45 GB   |    Зарегистрирован:  1 год 4 месяца   |    Скачан:  13 раз

Полного источника не было: 5 месяцев 3 дня

Сидов:  0  |  0 KB/s  ]   Личеров:  0  |  0 KB/s  ]

* - сиды/пиры с внешних источников

   
 
Автор Сообщение

makkol Пол:Муж

08-Июл-2015 14:11

Резня зомби 2: Рейх мёртвых / Zombie Massacre 2: Reich of the Dead


Год выпуска: 2015
Жанр: ужасы, военный
Производство: Канада , Италия [Event Film Distribution, Extreme Video Snc]
Режиссер: Люка Бони, Марко Ристори
В ролях: Эндрю Миллс, Дэн ван Хузен, Айк Стилстра, Элли МакКлелланд, Майкл Сигал, Дэвид Уайт, Эудженио Казини, Дезире Джорджетти
Сюжет фильма:
Вторая Мировая война. История о группе американских солдат, воюющих против орды зомби, созданных нацистами из узников лагерей ... У них только одна ночь, чтобы спасти свою собственную жизнь, но враг все сильнее и сильнее ...

  • Мировая премьера: 8 июня 2015


Качество видео: DVDRip

Продолжительность: 01:20:36
Формат: AVI
Видео: XviD, 720х304, 25.000 fps, 1982 kbps
Аудио #1: русский, любительский одноголосый закадровый (Васька Куролесов), AC3 2.0, 48 kHz, 192 kbps
Аудио #2: английский, оригинал, AC3 2.0, 48 kHz, 384 kbps

Код:

Общее
Полное имя                               : zombie.massacre.2.reich.of.the.dead.2015.dvdrip.avi
Формат                                   : AVI
Формат/Информация                        : Audio Video Interleave
Размер файла                             : 1,45 Гбайт
Продолжительность                        : 1 ч. 20 м.
Общий поток                              : 2573 Кбит/сек
Программа кодирования                    : VirtualDubMod 1.5.10.2 (build 2540/release)
Библиотека кодирования                   : VirtualDubMod build 2540/release

Видео
Идентификатор                            : 0
Формат                                   : MPEG-4 Visual
Профиль формата                          : Advanced Simple@L5
Параметр BVOP формата                    : 2
Параметр QPel формата                    : Нет
Параметр GMC формата                     : Без точки перехода
Параметр матрицы формата                 : Default (MPEG)
Режим смешивания                         : Сжатый битовый поток
Идентификатор кодека                     : XVID
Идентификатор кодека/Подсказка           : XviD
Продолжительность                        : 1 ч. 20 м.
Битрейт                                  : 1982 Кбит/сек
Ширина                                   : 720 пикселей
Высота                                   : 304 пикселя
Соотношение сторон                       : 2,35:1
Частота кадров                           : 25,000 кадров/сек
Цветовое пространство                    : YUV
Субдискретизация насыщенности            : 4:2:0
Битовая глубина                          : 8 бит
Тип развёртки                            : Прогрессивная
Метод сжатия                             : С потерями
Бит/(Пиксели*Кадры)                      : 0.344
Размер потока                            : 1,06 Гбайт (73%)
Библиотека кодирования                   : XviD 64

Аудио #1
Идентификатор                            : 1
Формат                                   : AC-3
Формат/Информация                        : Audio Coding 3
Расширение режима                        : CM (complete main)
Параметр Endianness формата              : Big
Идентификатор кодека                     : 2000
Продолжительность                        : 1 ч. 20 м.
Вид битрейта                             : Постоянный
Битрейт                                  : 192 Кбит/сек
Каналы                                   : 2 канала
Расположение каналов                     : Front: L R
Частота                                  : 48,0 КГц
Битовая глубина                          : 16 бит
Метод сжатия                             : С потерями
Размер потока                            : 111 Мбайт (7%)
Выравнивание                             : Разделение по промежуткам

Аудио #2
Идентификатор                            : 2
Формат                                   : AC-3
Формат/Информация                        : Audio Coding 3
Расширение режима                        : CM (complete main)
Параметр Endianness формата              : Big
Идентификатор кодека                     : 2000
Продолжительность                        : 1 ч. 20 м.
Вид битрейта                             : Постоянный
Битрейт                                  : 384 Кбит/сек
Каналы                                   : 2 канала
Расположение каналов                     : Front: L R
Частота                                  : 48,0 КГц
Битовая глубина                          : 16 бит
Метод сжатия                             : С потерями
Размер потока                            : 221 Мбайт (15%)
Выравнивание                             : Разделение по промежуткам
picpicpic
Для увеличения картинки щелкните мышкой по превью

Этот торрент недоступен для скачивания без регистрации, однако доступен по публичной magnet-ссылке (источники с публичных трекеров). Перед использованием ссылки прочтите, пожалуйста Пользовательское соглашение, а также как можно дольше оставайтесь на раздаче! Для того, чтобы скачать сам торрент-файл (который видит больше источников), а также для того, чтобы поблагодарить релизера, вам необходимо зарегистрироваться. Если регистрироваться лень - вы можете также попробовать скачать релиз по нашим партнерским ссылкам ниже.

[underverse.su].t55769.torrent
Трекер: Зарегистрирован   [ 08.07.2015 14:11 ]  

Статус: проверено (by Ведьмочка at 08.07.2015 14:48)
Поблагодарили: 1 человек
Тип торрента: публичный - доступные источники с открытых трекеров: 
Размер: 1,45 GB (занимает 1/3 DVDR, для записи нужно 1 болванка DVDR/RW)
 
 
Похожие темы
Форум Тема Автор Торрент Отв. Посл. сооб.
Зарубежное кино [DVDRip, Low-Res HDRip, и т.д.] Резня зомби / Zombie Massacre (Люка Бони, Марко Ристори) [2013 г., ужасы, фантастика, боевик, HDRip] VO + Original Чертёнок
1 | 0

0 | 870

34

19.08.2013 01:35

Зарубежное кино [HDDVDRip / BDRip / WEB-DL / HDTV 1080/720р] Резня зомби / Zombie Massacre (Люка Бони, Марко Ристори) [2013 г., Ужасы, Фантастика, Боевик, BDRip 720p] MVO (Rus) + Original (Eng) + Subs (Rus) Ведьмочка
11 | 1

1 | 749

19

01.08.2014 14:39


Яндекс.Метрика powered by Sphinx


В Н И М А Н И Е
Сайт не распространяет и не хранит электронные версии произведений, а лишь бесплатно и без коммерческой выгоды (не требуя взамен платы,
SMS и т.д.) предоставляет доступ к создаваемому пользователями каталогу ссылок на торрент-файлы, которые содержат только списки хеш-сумм.
Убедительная просьба с жалобами обращаться напрямую к пользователю, разместившему торрент файл.

Вверх