Loading...
Error

Сладкие оправдания / Сладкое алиби / Sweet Alibis / Tian mi sha ji (Юй-чи Лянь) [2014 г., комедия, боевик, HDRip] DVO

Статистика раздачи
Размер:  1,46 GB   |    Зарегистрирован:  1 год 5 месяцев   |    Скачан:  16 раз

Полного источника не было: 11 месяцев

Сидов:  0  |  0 KB/s  ]   Личеров:  0  |  0 KB/s  ]

* - сиды/пиры с внешних источников

   
 
Автор Сообщение

makkol Пол:Муж

08-Июл-2015 13:22

Сладкие оправдания / Сладкое алиби / Sweet Alibis / Tian mi sha ji


Год выпуска: 2014
Жанр: комедия, боевик
Производство: Тайвань [Arrow Cinematic Group, JA productions, Taipei Postproduction]
Режиссер: Юй-чи Лянь
В ролях: Алек Су, Ариэль Линь, Хонг Ли, Мэтт Чун-тьен Ву, Кен Лин, Чи-ин Чу, Руби Лин, Стэн Ли
Сюжет фильма:
Чу-И Ванг полицейский, но не стандартный герой, к которым все так привыкли. Однако его начальник уверен в каких-то особых способностях своего подчинённого и даёт ему нового партнёра новичка Ю-Пинг Гао, а также особое задание, которое как раз соответствует особым способностям детектива Ванга...

  • Мировая премьера: 17 января 2014


Перевод: Skyworker
Озвучивание: DeadSno & den904

Качество видео: HDRip

Продолжительность: 01:53:47
Формат: AVI
Видео: XviD, 720x304, 24.000 fps, 1638 kbps
Аудио: русский, любительский двухголосый закадровый, AC3 2.0, 48 kHz, 192 kbps

Код:

General
Complete name                    : Sweet.Alibis.2014.HDRip.avi
Format                           : AVI
Format/Info                      : Audio Video Interleave
File size                        : 1.46 GiB
Duration                         : 1h 53mn
Overall bit rate                 : 1 837 Kbps
Writing application              : VirtualDubMod 1.5.10.3 | www.virtualdub-fr.org || (build 2550/release)
Writing library                  : VirtualDubMod build 2550/release
Copyright                        : rip by ivandubskoj

Video
ID                               : 0
Format                           : MPEG-4 Visual
Format profile                   : Advanced Simple@L5
Format settings, BVOP            : 1
Format settings, QPel            : No
Format settings, GMC             : No warppoints
Format settings, Matrix          : Custom
Codec ID                         : XVID
Codec ID/Hint                    : XviD
Duration                         : 1h 53mn
Bit rate                         : 1 638 Kbps
Width                            : 720 pixels
Height                           : 304 pixels
Display aspect ratio             : 2.35:1
Frame rate                       : 24.000 fps
Color space                      : YUV
Chroma subsampling               : 4:2:0
Bit depth                        : 8 bits
Scan type                        : Progressive
Compression mode                 : Lossy
Bits/(Pixel*Frame)               : 0.312
Stream size                      : 1.30 GiB (89%)
Writing library                  : XviD 73

Audio
ID                               : 1
Format                           : AC-3
Format/Info                      : Audio Coding 3
Mode extension                   : CM (complete main)
Codec ID                         : 2000
Duration                         : 1h 53mn
Bit rate mode                    : Constant
Bit rate                         : 192 Kbps
Channel(s)                       : 2 channels
Channel positions                : Front: L R
Sampling rate                    : 48.0 KHz
Bit depth                        : 16 bits
Compression mode                 : Lossy
Stream size                      : 156 MiB (10%)
Alignment                        : Split accross interleaves
Interleave, duration             : 64 ms (1.54 video frames)
Interleave, preload duration     : 500 ms
picpicpicpicpic
Для увеличения картинки щелкните мышкой по превью

Этот торрент недоступен для скачивания без регистрации, однако доступен по публичной magnet-ссылке (источники с публичных трекеров). Перед использованием ссылки прочтите, пожалуйста Пользовательское соглашение, а также как можно дольше оставайтесь на раздаче! Для того, чтобы скачать сам торрент-файл (который видит больше источников), а также для того, чтобы поблагодарить релизера, вам необходимо зарегистрироваться. Если регистрироваться лень - вы можете также попробовать скачать релиз по нашим партнерским ссылкам ниже.

[underverse.su].t55766.torrent
Трекер: Зарегистрирован   [ 08.07.2015 13:22 ]  

Статус: проверено (by Ведьмочка at 08.07.2015 14:01)
Поблагодарили: 1 человек
Тип торрента: публичный - доступные источники с открытых трекеров: 
Размер: 1,46 GB (занимает 0,33 DVDR, для записи нужно 1 болванка DVDR/RW)
 
 
Похожие темы
Форум Тема Автор Торрент Отв. Посл. сооб.
Зарубежное кино [HDDVDRip / BDRip / WEB-DL / HDTV 1080/720р] Сладкие оправдания / Сладкое алиби / Sweet Alibis / Tian mi sha ji (Юй-чи Лянь) [2014 г., комедия, боевик, BDRip 1080p] DVO makkol
0 | 0

0 | 466

8

08.07.2015 13:34


Яндекс.Метрика powered by Sphinx


В Н И М А Н И Е
Сайт не распространяет и не хранит электронные версии произведений, а лишь бесплатно и без коммерческой выгоды (не требуя взамен платы,
SMS и т.д.) предоставляет доступ к создаваемому пользователями каталогу ссылок на торрент-файлы, которые содержат только списки хеш-сумм.
Убедительная просьба с жалобами обращаться напрямую к пользователю, разместившему торрент файл.

Вверх