Loading...
Error

Оз: Нашествие летучих обезьян / Guardianes de Oz (Альберто Мар) [2015 г., мультфильм, фэнтези, приключения, BDRip 1080p] Dub

Статистика раздачи
Размер:  4,89 GB   |    Зарегистрирован:  2 года 10 месяцев   |    Скачан:  20 раз

Полного источника не было: 1 год 11 месяцев

Сидов:  0  |  0 KB/s  ]   Личеров:  0  |  0 KB/s  ]

* - сиды/пиры с внешних источников

   
 
Автор Сообщение

makkol Пол:Муж

07-Июл-2015 23:32

Оз: Нашествие летучих обезьян / Guardianes de Oz


Год выпуска: 2015
Жанр: мультфильм, фэнтези, приключения
Производство: Индия , Мексика [Anima Estudios, Discreet Arts Productions]
Режиссер: Альберто Мар
Роли озвучивали: Рауль Араиса, Раймундо Армихо, Ямил Атала, Бруно Коронел, Магда Хинер, Себастьян Льяпур, Мойсес Иван Мора, Лорето Пералта, Salvador Reyes, Хорхе Ван Ранкин
Сюжет фильма:
Вы помните, как все начиналось? Давным-давно в страну Оз прилетела юная героиня, ее звали Дороти, она смогла победить Коварную Ведьму Запада и добрая волшебница Глинда помогла ей вернуться домой. А друзья Дороти — Страшила, Железный Дровосек и Смелый Лев — стали правителями страны Оз. И все в волшебной стране было хорошо, пока Глинда по своей доброте не решила дать Коварной Ведьме Запада еще один шанс.

Чары Злодейки поместили в метлу, а метлу передали Правителям. Но злая ведьма — есть злая ведьма, даже без своих чар… Знакомая с детства история, продолжение которой рассказывает маленькая летающая обезьянка, которая на самом деле не умеет летать и не хочет служить Коварной Ведьме Запада.

  • Мировая премьера: 26 марта 2015
  • Российская премьера: 2 апреля 2015


Релиз: Лицензия

Качество видео: BDRip 1080p

Продолжительность: 01:27:21
Формат: MKV
Видео: MPEG-4 AVC, 1920x1040, 24.000 fps, 7403 kbps
Аудио: русский, дублированный, AC3 5.1, 48 kHz, 448 kbps

Код:

Общее
Уникальный идентификатор                 : 233038828290086764408638781339015632259 (0xAF51A55095C1CDFF8D46189B640CD583)
Полное имя                               : Oz.Nashestvie.Letuchih.Obezyan.2015.D.BDRip.1080p.ELEKTRI4KA.mkv
Формат                                   : Matroska
Версия формата                           : Version 4 / Version 2
Размер файла                             : 4,89 Гбайт
Продолжительность                        : 1 ч. 27 м.
Общий поток                              : 8006 Кбит/сек
Название фильма                          : Oz.Nashestvie.Letuchih.Obezyan.2015.D.BDRip.1080p.ELEKTRI4KA.uniongang.tv
Дата кодирования                         : UTC 2015-07-06 12:24:36
Программа кодирования                    : mkvmerge v6.9.1 ('Blue Panther') 64bit built on Apr 18 2014 18:23:38
Библиотека кодирования                   : libebml v1.3.0 + libmatroska v1.4.1

Видео
Идентификатор                            : 1
Формат                                   : AVC
Формат/Информация                        : Advanced Video Codec
Профиль формата                          : High@L4.1
Параметр CABAC формата                   : Да
Параметр ReFrames формата                : 7 кадров
Идентификатор кодека                     : V_MPEG4/ISO/AVC
Продолжительность                        : 1 ч. 27 м.
Битрейт                                  : 7403 Кбит/сек
Ширина                                   : 1920 пикселей
Высота                                   : 1040 пикселей
Соотношение сторон                       : 1,85:1
Режим частоты кадров                     : Постоянный
Частота кадров                           : 24,000 кадра/сек
Цветовое пространство                    : YUV
Субдискретизация насыщенности            : 4:2:0
Битовая глубина                          : 8 бит
Тип развёртки                            : Прогрессивная
Бит/(Пиксели*Кадры)                      : 0.154
Размер потока                            : 4,51 Гбайт (92%)
Заголовок                                : Oz.Nashestvie.Letuchih.Obezyan.2015.D.BDRip.1080p.ELEKTRI4KA.uniongang.tv
Язык                                     : English
Default                                  : Да
Forced                                   : Нет

Аудио
Идентификатор                            : 2
Формат                                   : AC-3
Формат/Информация                        : Audio Coding 3
Расширение режима                        : CM (complete main)
Параметр Endianness формата              : Big
Идентификатор кодека                     : A_AC3
Продолжительность                        : 1 ч. 27 м.
Вид битрейта                             : Постоянный
Битрейт                                  : 448 Кбит/сек
Каналы                                   : 6 каналов
Расположение каналов                     : Front: L C R, Side: L R, LFE
Частота                                  : 48,0 КГц
Битовая глубина                          : 16 бит
Метод сжатия                             : С потерями
Размер потока                            : 280 Мбайт (6%)
Заголовок                                : Oz.Nashestvie.Letuchih.Obezyan.2015.D.BDRip.1080p.ELEKTRI4KA.uniongang.tv
Язык                                     : Russian
Default                                  : Да
Forced                                   : Нет
Релиз группы:

picpicpicpicpic
Для увеличения картинки щелкните мышкой по превью

Этот торрент недоступен для скачивания без регистрации, однако доступен по публичной magnet-ссылке (источники с публичных трекеров). Перед использованием ссылки прочтите, пожалуйста Пользовательское соглашение, а также как можно дольше оставайтесь на раздаче! Для того, чтобы скачать сам торрент-файл (который видит больше источников), а также для того, чтобы поблагодарить релизера, вам необходимо зарегистрироваться. Если регистрироваться лень - вы можете также попробовать скачать релиз по нашим партнерским ссылкам ниже. Кроме того, зарегистрированным пользователям не показывается всплывающая реклама при скачивании.

[underverse.su].t55750.torrent
Трекер: Зарегистрирован   [ 07.07.2015 23:32 ]  

Статус: проверено (by makkol at 18.08.2015 14:25)
Поблагодарили: пока никто не поблагодарил...
Тип торрента: публичный - доступные источники с открытых трекеров: 
Размер: 4,89 GB (занимает 1,12 DVDR, для записи нужно 2 болванки DVDR/RW)
 
 

31-Янв-2018 19:03

Топик был перенесен из форума Мультфильмы [HDDVDRip / BDRip / WEB-DL / HDTV 1080/720р] в форум Архив (мультфильмы высокого качества)


[cron robot]
 

Яндекс.Метрика powered by Sphinx


В Н И М А Н И Е
Сайт не распространяет и не хранит электронные версии произведений, а лишь бесплатно и без коммерческой выгоды (не требуя взамен платы,
SMS и т.д.) предоставляет доступ к создаваемому пользователями каталогу ссылок на торрент-файлы, которые содержат только списки хеш-сумм.
Убедительная просьба с жалобами обращаться напрямую к пользователю, разместившему торрент файл.

Вверх