Loading...
Error

Оз: Нашествие летучих обезьян / Guardianes de Oz (Альберто Мар) [2015 г., мультфильм, фэнтези, приключения, HDRip] Dub

Статистика раздачи
Размер:  1,46 GB   |    Зарегистрирован:  1 год 5 месяцев   |    Скачан:  31 раз

Полного источника не было: 2 месяца 9 дней

Сидов:  0  |  0 KB/s  ]   Личеров:  0  |  0 KB/s  ]

* - сиды/пиры с внешних источников

   
 
Автор Сообщение

makkol Пол:Муж

07-Июл-2015 23:15

Оз: Нашествие летучих обезьян / Guardianes de Oz


Год выпуска: 2015
Жанр: мультфильм, фэнтези, приключения
Производство: Индия , Мексика [Anima Estudios, Discreet Arts Productions]
Режиссер: Альберто Мар
Роли озвучивали: Рауль Араиса, Раймундо Армихо, Ямил Атала, Бруно Коронел, Магда Хинер, Себастьян Льяпур, Мойсес Иван Мора, Лорето Пералта, Salvador Reyes, Хорхе Ван Ранкин
Сюжет фильма:
Вы помните, как все начиналось? Давным-давно в страну Оз прилетела юная героиня, ее звали Дороти, она смогла победить Коварную Ведьму Запада и добрая волшебница Глинда помогла ей вернуться домой. А друзья Дороти — Страшила, Железный Дровосек и Смелый Лев — стали правителями страны Оз. И все в волшебной стране было хорошо, пока Глинда по своей доброте не решила дать Коварной Ведьме Запада еще один шанс.

Чары Злодейки поместили в метлу, а метлу передали Правителям. Но злая ведьма — есть злая ведьма, даже без своих чар… Знакомая с детства история, продолжение которой рассказывает маленькая летающая обезьянка, которая на самом деле не умеет летать и не хочет служить Коварной Ведьме Запада.

  • Мировая премьера: 26 марта 2015
  • Российская премьера: 2 апреля 2015


Релиз: Лицензия

Качество видео: HDRip

Продолжительность: 01:27:22
Формат: AVI
Видео: XviD, 720x384, 24.000 fps, 1929 kbps
Аудио: русский, дублированный, AC3 5.1, 48 kHz, 448 kbps

Код:

General
Complete name                            : Oz.Nashestvie.Letuchih.Obezyan.2015.D.HDRip.avi
Format                                   : AVI
Format/Info                              : Audio Video Interleave
File size                                : 1.46 GiB
Duration                                 : 1h 27mn
Overall bit rate                         : 2 387 Kbps
Writing application                      : VirtualDubMod 1.5.10.3 | www.virtualdub-fr.org || (build 2550/release)

Video
ID                                       : 0
Format                                   : MPEG-4 Visual
Format profile                           : Advanced Simple@L5
Format settings, BVOP                    : 2
Format settings, QPel                    : No
Format settings, GMC                     : No warppoints
Format settings, Matrix                  : Default (MPEG)
Muxing mode                              : Packed bitstream
Codec ID                                 : XVID
Codec ID/Hint                            : XviD
Duration                                 : 1h 27mn
Bit rate                                 : 1 929 Kbps
Width                                    : 720 pixels
Height                                   : 384 pixels
Display aspect ratio                     : 1.85:1
Frame rate                               : 24.000 fps
Color space                              : YUV
Chroma subsampling                       : 4:2:0
Bit depth                                : 8 bits
Scan type                                : Progressive
Compression mode                         : Lossy
Bits/(Pixel*Frame)                       : 0.291
Stream size                              : 1.18 GiB (81%)
Writing library                          : XviD 1.2.1 (UTC 2008-12-04)

Audio
ID                                       : 1
Format                                   : AC-3
Format/Info                              : Audio Coding 3
Mode extension                           : CM (complete main)
Format settings, Endianness              : Big
Codec ID                                 : 2000
Duration                                 : 1h 27mn
Bit rate mode                            : Constant
Bit rate                                 : 448 Kbps
Channel count                            : 6 channels
Channel positions                        : Front: L C R, Side: L R, LFE
Sampling rate                            : 48.0 KHz
Bit depth                                : 16 bits
Compression mode                         : Lossy
Stream size                              : 280 MiB (19%)
Alignment                                : Split accross interleaves
Interleave, duration                     : 42 ms (1.00 video frame)
Interleave, preload duration             : 500 ms
Релиз группы:

picpicpicpicpic
Для увеличения картинки щелкните мышкой по превью

Этот торрент недоступен для скачивания без регистрации, однако доступен по публичной magnet-ссылке (источники с публичных трекеров). Перед использованием ссылки прочтите, пожалуйста Пользовательское соглашение, а также как можно дольше оставайтесь на раздаче! Для того, чтобы скачать сам торрент-файл (который видит больше источников), а также для того, чтобы поблагодарить релизера, вам необходимо зарегистрироваться. Если регистрироваться лень - вы можете также попробовать скачать релиз по нашим партнерским ссылкам ниже.

[underverse.su].t55749.torrent
Трекер: Зарегистрирован   [ 07.07.2015 23:15 ]  

Статус: проверено (by makkol at 19.11.2015 23:20)
Поблагодарили: 1 человек
Тип торрента: публичный - доступные источники с открытых трекеров: 
Размер: 1,46 GB (занимает 1/3 DVDR, для записи нужно 1 болванка DVDR/RW)
 
 
Похожие темы
Форум Тема Автор Торрент Отв. Посл. сооб.
Зарубежные мультфильмы Оз: Нашествие летучих обезьян / Guardianes de Oz (Альберто Мар / Alberto Mar) [2015 г., мультфильм, фэнтези, приключения, HDRip-AVC] Dub 90ytr90
10 | 0

0 | 419

14

24.01.2016 15:53

Мультфильмы [HDDVDRip / BDRip / WEB-DL / HDTV 1080/720р] Оз: Нашествие летучих обезьян / Guardianes de Oz (Альберто Мар) [2015 г., мультфильм, фэнтези, приключения, BDRip 1080p] Dub makkol
0 | 0

0 | 639

20

07.07.2015 23:32


Яндекс.Метрика powered by Sphinx


В Н И М А Н И Е
Сайт не распространяет и не хранит электронные версии произведений, а лишь бесплатно и без коммерческой выгоды (не требуя взамен платы,
SMS и т.д.) предоставляет доступ к создаваемому пользователями каталогу ссылок на торрент-файлы, которые содержат только списки хеш-сумм.
Убедительная просьба с жалобами обращаться напрямую к пользователю, разместившему торрент файл.

Вверх