Loading...
Error

Неназначенные встречи / Nesmluvena Setkani (Ирена Павласкова) [1994 г., фантастика, SatRip] VO + Original

Статистика раздачи
Размер:  1,43 GB   |    Зарегистрирован:  1 год 4 месяца   |    Скачан:  26 раз

Полного источника не было: 22 часа

Сидов:  0  |  0 KB/s  ]   Личеров:  0  |  0 KB/s  ]

* - сиды/пиры с внешних источников

   
 
Автор Сообщение

makkol Пол:Муж

07-Июл-2015 22:56

Неназначенные встречи / Nesmluvená setkání


Год выпуска: 1994
Жанр: фантастика
Производство: Чехия [Ceská Televize]
Режиссер: Ирена Павласкова
В ролях: Ян Качер, Мартина Меншикова, Йозеф Абрахам, Пётр Ричанек, Лукаш Вакулик
Сюжет фильма:
Экранизация повести братьев Стругацких "Малыш", снятая для чешского телевидения в 1994 году. История Малыша — «космического Маугли», — человеческого ребенка, воспитанного таинственной инопланетной расой… История космонавтов, пытающихся через Малыша войти в контакт с его «воспитателями»…Одна из самых поэтичных — и самых увлекательных повестей братьев Стругацких…

Этот фильм - это рассказ группы астронавтов исследующих планеты в поиске пригодных жилищно-бытовых условий для будущих жителей Земли. На одной из планет они находят потерпевший аварию корабль, члены экипажа этого корабля погибли в аварии, но по сообщению с Земли на борту был так же 5 летний мальчик - сын погибших астронавтов, и среди погибших поисковая группа его не находит. Однако вскоре экипаж поисковой группы встречается с 11-летним мальчиком, вооруженным двумя "магическими" ветками. Грязный, одичавший, голый, он изучает появившихся на планете "пришельцев", а они пытаются установить с ним контакт, чтобы выяснить каким образом ему удалось выжить на чужой планете потеряв своих родителей. Из его рассказов и наблюдения за ним, поисковая группа начинает понимать, что на планете также присутствует таинственная инопланетная раса, которая и помогла мальчишке выжить...

Перевод: Роман Зайцев
Озвучивание: Вячеслав Прошин

Качество видео: SatRip

Продолжительность: 01:30:05
Формат: AVI
Видео: XviD, 720x576 (1.25:1), 25.000 fps, 1997 kbps
Аудио #1: русский, любительский одноголосый закадровый, MP3 2.0, 44.1 kHz, 128 kbps
Аудио #2: чешский, оригинал, MP3 2.0, 44.1 kHz, 128 kbps
Субтитры: русские внешние (SRT)

Код:

Общее
Полное имя                               : Nenaznachennye_vstrechi.avi
Формат                                   : AVI
Формат/Информация                        : Audio Video Interleave
Размер файла                             : 1,43 Гбайт
Продолжительность                        : 1 ч. 30 м.
Общий поток                              : 2267 Кбит/сек
Программа кодирования                    : VirtualDubModRus 1.5.10.2 (build 2540/release)
Библиотека кодирования                   : VirtualDubMod build 2540/release

Видео
Идентификатор                            : 0
Формат                                   : MPEG-4 Visual
Профиль формата                          : Advanced Simple@L5
Параметр BVOP формата                    : 2
Параметр QPel формата                    : Нет
Параметр GMC формата                     : Без точки перехода
Параметр матрицы формата                 : Default (H.263)
Режим смешивания                         : Сжатый битовый поток
Идентификатор кодека                     : XVID
Идентификатор кодека/Подсказка           : XviD
Продолжительность                        : 1 ч. 30 м.
Битрейт                                  : 1997 Кбит/сек
Ширина                                   : 720 пикселей
Высота                                   : 576 пикселей
Соотношение сторон                       : 5:4
Частота кадров                           : 25,000 кадров/сек
Стандарт вещания                         : PAL
Цветовое пространство                    : YUV
Субдискретизация насыщенности            : 4:2:0
Битовая глубина                          : 8 бит
Тип развёртки                            : Прогрессивная
Метод сжатия                             : С потерями
Бит/(Пиксели*Кадры)                      : 0.193
Размер потока                            : 1,26 Гбайт (88%)
Библиотека кодирования                   : XviD 1.2.1 (UTC 2008-12-04)

Аудио #1
Идентификатор                            : 1
Формат                                   : MPEG Audio
Версия формата                           : Version 1
Профиль формата                          : Layer 3
Идентификатор кодека                     : 55
Идентификатор кодека/Подсказка           : MP3
Продолжительность                        : 1 ч. 29 м.
Вид битрейта                             : Постоянный
Битрейт                                  : 128 Кбит/сек
Каналы                                   : 2 канала
Частота                                  : 44,1 КГц
Метод сжатия                             : С потерями
Задержка видео                           : 1 с. 500 мс.
Размер потока                            : 82,3 Мбайт (6%)
Выравнивание                             : Разделение по промежуткам
Продолжительность промежутка             : 40  мс. (1,00 видеокадр)
Время предзагрузки промежутка            : 500  мс.

Аудио #2
Идентификатор                            : 2
Формат                                   : MPEG Audio
Версия формата                           : Version 1
Профиль формата                          : Layer 3
Идентификатор кодека                     : 55
Идентификатор кодека/Подсказка           : MP3
Продолжительность                        : 1 ч. 30 м.
Вид битрейта                             : Постоянный
Битрейт                                  : 128 Кбит/сек
Каналы                                   : 2 канала
Частота                                  : 44,1 КГц
Метод сжатия                             : С потерями
Задержка видео                           : 1 с. 500 мс.
Размер потока                            : 82,5 Мбайт (6%)
Выравнивание                             : Разделение по промежуткам
Продолжительность промежутка             : 40  мс. (1,00 видеокадр)
Время предзагрузки промежутка            : 500  мс.
Релиз:

picpicpicpicpic
Для увеличения картинки щелкните мышкой по превью

Этот торрент недоступен для скачивания без регистрации, однако доступен по публичной magnet-ссылке (источники с публичных трекеров). Перед использованием ссылки прочтите, пожалуйста Пользовательское соглашение, а также как можно дольше оставайтесь на раздаче! Для того, чтобы скачать сам торрент-файл (который видит больше источников), а также для того, чтобы поблагодарить релизера, вам необходимо зарегистрироваться. Если регистрироваться лень - вы можете также попробовать скачать релиз по нашим партнерским ссылкам ниже.

[underverse.su].t55748.torrent
Трекер: Зарегистрирован   [ 07.07.2015 22:56 ]  

Статус: проверено (by makkol at 01.08.2015 11:38)
Поблагодарили: пока никто не поблагодарил...
Тип торрента: публичный - доступные источники с открытых трекеров: 
Размер: 1,43 GB (занимает 0,33 DVDR, для записи нужно 1 болванка DVDR/RW)
 
 

Яндекс.Метрика powered by Sphinx


В Н И М А Н И Е
Сайт не распространяет и не хранит электронные версии произведений, а лишь бесплатно и без коммерческой выгоды (не требуя взамен платы,
SMS и т.д.) предоставляет доступ к создаваемому пользователями каталогу ссылок на торрент-файлы, которые содержат только списки хеш-сумм.
Убедительная просьба с жалобами обращаться напрямую к пользователю, разместившему торрент файл.

Вверх