Loading...
Error

Петух из Сан-Виктор / Le Coq de St-Victor (Пьер Греко) [2014 г., мультфильм, комедия, семейный, BDRip] VO (Rus) + Original (Fre) + Eng

Статистика раздачи
Размер:  1,35 GB   |    Зарегистрирован:  1 год 4 месяца   |    Скачан:  12 раз

Полного источника не было: 3 месяца 10 дней

Сидов:  0  |  0 KB/s  ]   Личеров:  0  |  0 KB/s  ]

* - сиды/пиры с внешних источников

   
 
Автор Сообщение

makkol Пол:Муж

07-Июл-2015 22:22

Петух из Сан-Виктор / Le Coq de St-Victor


Год выпуска: 2014
Жанр: мультфильм, комедия, семейный
Производство: Канада [Productions 10th Ave]
Режиссер: Пьер Греко
Роли озвучивали: Поль Амарани, Бенуа Бриер, Энн Дорваль, Люк Герен, Гай Джодоин, Гастон Лепаж, Алексис Мартен, Гай Надон, Марилуп Вульф, Ноэми Йелль
Сюжет фильма:
В городке Сан-Виктор царит порядок и процветание, что не может не радовать педантичного мэра. Который ставит благополучие своего городка в заслугу любимому петуху, за то что тот на протяжении семи лет будит своих горожан ровно в 4 утра, тем самым давая им достаточное количество времени везде поспевать в своих делах. Но столь раннее пробуждение под петушиный крик раздражает жителей и они принимают решение передать петуха в соседний городок Сан-Бенуа, обменяв его на осла в надежде, что последний принесет им удачу. Но вместо ожидаемого успеха, городок предается лени, люди бездельничают в праздности проводя своё время. Такое положение вещей весьма огорчает мэра и небольшая команда из его активных почитателей отправляются в Сан-Бенуа, с намерением вернуть петуха обратно.

  • Мировая премьера: 21 февраля 2014


Качество видео: BDRip

Продолжительность: 01:20:08
Формат: AVI
Видео: XviD, 720x400, 23.976 fps, 1567 kbps
Аудио #1: русский, любительский одноголосый закадровый (Max Nabokov), AC3 2.0, 48 kHz, 192 kbps
Аудио #2: французский, оригинал, AC3 5.1, 48 kHz, 448 kbps
Аудио #3: английский, AC3 5.1, 48 kHz, 192 kbps

Код:

Общее
Полное имя                               : Le Coq De St Victor 2014.BDRip.(Max Nabokov).avi
Формат                                   : AVI
Формат/Информация                        : Audio Video Interleave
Размер файла                             : 1,35 Гбайт
Продолжительность                        : 1 ч. 20 м.
Общий поток                              : 2420 Кбит/сек
Программа кодирования                    : VirtualDubMod 1.5.10.2 (build 2540/release)
Библиотека кодирования                   : VirtualDubMod build 2540/release

Видео
Идентификатор                            : 0
Формат                                   : MPEG-4 Visual
Профиль формата                          : Advanced Simple@L5
Параметр BVOP формата                    : 1
Параметр QPel формата                    : Нет
Параметр GMC формата                     : Без точки перехода
Параметр матрицы формата                 : Default (H.263)
Идентификатор кодека                     : XVID
Идентификатор кодека/Подсказка           : XviD
Продолжительность                        : 1 ч. 20 м.
Битрейт                                  : 1569 Кбит/сек
Ширина                                   : 720 пикселей
Высота                                   : 400 пикселей
Соотношение сторон                       : 16:9
Частота кадров                           : 23,976 кадра/сек
Цветовое пространство                    : YUV
Субдискретизация насыщенности            : 4:2:0
Битовая глубина                          : 8 бит
Тип развёртки                            : Прогрессивная
Метод сжатия                             : С потерями
Бит/(Пиксели*Кадры)                      : 0.227
Размер потока                            : 899 Мбайт (65%)
Библиотека кодирования                   : XviD 1.2.1 (UTC 2008-12-04)

Аудио #1
Идентификатор                            : 1
Формат                                   : AC-3
Формат/Информация                        : Audio Coding 3
Расширение режима                        : CM (complete main)
Параметр Endianness формата              : Big
Идентификатор кодека                     : 2000
Продолжительность                        : 1 ч. 20 м.
Вид битрейта                             : Постоянный
Битрейт                                  : 192 Кбит/сек
Каналы                                   : 2 канала
Расположение каналов                     : Front: L R
Частота                                  : 48,0 КГц
Битовая глубина                          : 16 бит
Метод сжатия                             : С потерями
Размер потока                            : 110 Мбайт (8%)
Выравнивание                             : Разделение по промежуткам
Продолжительность промежутка             : 42  мс. (1,00 видеокадр)
Время предзагрузки промежутка            : 500  мс.

Аудио #2
Идентификатор                            : 2
Формат                                   : AC-3
Формат/Информация                        : Audio Coding 3
Расширение режима                        : CM (complete main)
Параметр Endianness формата              : Big
Идентификатор кодека                     : 2000
Продолжительность                        : 1 ч. 20 м.
Вид битрейта                             : Постоянный
Битрейт                                  : 448 Кбит/сек
Каналы                                   : 6 каналов
Расположение каналов                     : Front: L C R, Side: L R, LFE
Частота                                  : 48,0 КГц
Битовая глубина                          : 16 бит
Метод сжатия                             : С потерями
Размер потока                            : 257 Мбайт (19%)
Выравнивание                             : Разделение по промежуткам
Продолжительность промежутка             : 42  мс. (1,00 видеокадр)
Время предзагрузки промежутка            : 500  мс.

Аудио #3
Идентификатор                            : 3
Формат                                   : AC-3
Формат/Информация                        : Audio Coding 3
Расширение режима                        : CM (complete main)
Параметр Endianness формата              : Big
Идентификатор кодека                     : 2000
Продолжительность                        : 1 ч. 20 м.
Вид битрейта                             : Постоянный
Битрейт                                  : 192 Кбит/сек
Каналы                                   : 6 каналов
Расположение каналов                     : Front: L C R, Side: L R, LFE
Частота                                  : 48,0 КГц
Битовая глубина                          : 16 бит
Метод сжатия                             : С потерями
Размер потока                            : 110 Мбайт (8%)
Выравнивание                             : Разделение по промежуткам
Продолжительность промежутка             : 42  мс. (1,00 видеокадр)
Время предзагрузки промежутка            : 500  мс.
picpicpicpicpic
Для увеличения картинки щелкните мышкой по превью

Этот торрент недоступен для скачивания без регистрации, однако доступен по публичной magnet-ссылке (источники с публичных трекеров). Перед использованием ссылки прочтите, пожалуйста Пользовательское соглашение, а также как можно дольше оставайтесь на раздаче! Для того, чтобы скачать сам торрент-файл (который видит больше источников), а также для того, чтобы поблагодарить релизера, вам необходимо зарегистрироваться. Если регистрироваться лень - вы можете также попробовать скачать релиз по нашим партнерским ссылкам ниже.

[underverse.su].t55747.torrent
Трекер: Зарегистрирован   [ 07.07.2015 22:22 ]  

Статус: проверено (by makkol at 19.11.2015 23:19)
Поблагодарили: 1 человек
Тип торрента: публичный - доступные источники с открытых трекеров: 
Размер: 1,35 GB (занимает 0,31 DVDR, для записи нужно 1 болванка DVDR/RW)
 
 

Яндекс.Метрика powered by Sphinx


В Н И М А Н И Е
Сайт не распространяет и не хранит электронные версии произведений, а лишь бесплатно и без коммерческой выгоды (не требуя взамен платы,
SMS и т.д.) предоставляет доступ к создаваемому пользователями каталогу ссылок на торрент-файлы, которые содержат только списки хеш-сумм.
Убедительная просьба с жалобами обращаться напрямую к пользователю, разместившему торрент файл.

Вверх