Loading...
Error

Виплала / Wiplala (Тим Олихоек) [2014 г., приключения, HDRip] VO

Статистика раздачи
Размер:  1,38 GB   |    Зарегистрирован:  1 год 4 месяца   |    Скачан:  15 раз

Полного источника не было: 9 дней

Сидов:  0  |  0 KB/s  ]   Личеров:  0  |  0 KB/s  ]

* - сиды/пиры с внешних источников

   
 
Автор Сообщение

makkol Пол:Муж

07-Июл-2015 15:08

Виплала / Wiplala


Год выпуска: 2014
Жанр: приключения
Производство: Нидерланды [Bos Bros. Film & TV Productions, Mollywood]
Режиссер: Тим Олихоек
В ролях: Питер Пол Мюллер, Геза Вайз, Кие Кетелаар, Питер Ван Ден Бегин, Кэс Джэнсен, Ганс Кестинг, Мамун Эленуссис, Рене Гротхоф, Морис Нэйтан Вирт, Ферди Стофмеель
Сюжет фильма:
Что не говори, но семью Бломов нельзя считать успешной. Ведь на плечи отца семейства после смерти супруги легла вся ответственность за двух несовершеннолетних детей. Да и должность учителя в местной школе – это не гарант финансового благополучия. Но самое главное – это то, что в этой семье никто не унывает, даже самый младший Йоханнес – самый впечатлительный и безропотный. И так уж случилось, что именно он обнаружил в своем доме на кухне маленького человечка, который очень любил арахисовое масло. И все бы ничего, но Йоханнес попросил своего гостя об одном одолжении.

  • Мировая премьера: 19 ноября 2014


Качество видео: HDRip

Продолжительность: 01:40:19
Формат: AVI
Видео: XviD, 720х384@922х384, 24.000 fps, 1767 kbps
Аудио: русский, любительский одноголосый закадровый (viktor_2838), MP3 2.0, 48 kHz, 192 kbps

Код:

Общее
Полное имя                               : Виплала.avi
Формат                                   : AVI
Формат/Информация                        : Audio Video Interleave
Профиль формата                          : OpenDML
Размер файла                             : 1,38 Гбайт
Продолжительность                        : 1 ч. 40 м.
Общий поток                              : 1973 Кбит/сек
Программа кодирования                    : Lavf55.19.104

Видео
Идентификатор                            : 0
Формат                                   : MPEG-4 Visual
Профиль формата                          : Simple@L1
Параметр BVOP формата                    : Нет
Параметр QPel формата                    : Нет
Параметр GMC формата                     : Без точки перехода
Параметр матрицы формата                 : Default (H.263)
Идентификатор кодека                     : XVID
Идентификатор кодека/Подсказка           : XviD
Продолжительность                        : 1 ч. 40 м.
Битрейт                                  : 1767 Кбит/сек
Ширина                                   : 720 пикселей
Высота                                   : 384 пикселя
Соотношение сторон                       : 2,40:1
Частота кадров                           : 24,000 кадра/сек
Цветовое пространство                    : YUV
Субдискретизация насыщенности            : 4:2:0
Битовая глубина                          : 8 бит
Тип развёртки                            : Прогрессивная
Метод сжатия                             : С потерями
Бит/(Пиксели*Кадры)                      : 0.266
Размер потока                            : 1,24 Гбайт (90%)
Библиотека кодирования                   : Lavc55.39.100

Аудио
Идентификатор                            : 1
Формат                                   : MPEG Audio
Версия формата                           : Version 1
Профиль формата                          : Layer 3
Режим                                    : Joint stereo
Расширение режима                        : MS Stereo
Идентификатор кодека                     : 55
Идентификатор кодека/Подсказка           : MP3
Продолжительность                        : 1 ч. 40 м.
Вид битрейта                             : Постоянный
Битрейт                                  : 192 Кбит/сек
Каналы                                   : 2 канала
Частота                                  : 48,0 КГц
Метод сжатия                             : С потерями
Размер потока                            : 138 Мбайт (10%)
Выравнивание                             : Соединение по промежуткам
Продолжительность промежутка             : 24  мс. (0,58 видеокадр)
Время предзагрузки промежутка            : 24  мс.
picpicpicpicpic
Для увеличения картинки щелкните мышкой по превью

Этот торрент недоступен для скачивания без регистрации, однако доступен по публичной magnet-ссылке (источники с публичных трекеров). Перед использованием ссылки прочтите, пожалуйста Пользовательское соглашение, а также как можно дольше оставайтесь на раздаче! Для того, чтобы скачать сам торрент-файл (который видит больше источников), а также для того, чтобы поблагодарить релизера, вам необходимо зарегистрироваться. Если регистрироваться лень - вы можете также попробовать скачать релиз по нашим партнерским ссылкам ниже.

[underverse.su].t55741.torrent
Трекер: Зарегистрирован   [ 07.07.2015 15:08 ]  

Статус: проверено (by makkol at 01.08.2015 11:52)
Поблагодарили: пока никто не поблагодарил...
Тип торрента: публичный - доступные источники с открытых трекеров: 
Размер: 1,38 GB (занимает 0,32 DVDR, для записи нужно 1 болванка DVDR/RW)
 
 
Похожие темы
Форум Тема Автор Торрент Отв. Посл. сооб.
Зарубежное кино [HDDVDRip / BDRip / WEB-DL / HDTV 1080/720р] Виплала / Wiplala (Тим Олихоек) [2014 г., приключения, BDRip 1080p] VO + Original + Subs makkol
1 | 0

0 | 427

8

07.07.2015 15:25


Яндекс.Метрика powered by Sphinx


В Н И М А Н И Е
Сайт не распространяет и не хранит электронные версии произведений, а лишь бесплатно и без коммерческой выгоды (не требуя взамен платы,
SMS и т.д.) предоставляет доступ к создаваемому пользователями каталогу ссылок на торрент-файлы, которые содержат только списки хеш-сумм.
Убедительная просьба с жалобами обращаться напрямую к пользователю, разместившему торрент файл.

Вверх