Loading...
Error

Пионеры-герои (Наталья Кудряшова) [2015 г., драма, WEB-DLRip]

Статистика раздачи
Размер:  1,45 GB   |    Зарегистрирован:  2 года 1 месяц   |    Скачан:  58 раз

Полного источника не было: 4 месяца 3 дня

Сидов:  0  |  0 KB/s  ]   Личеров:  0  |  0 KB/s  ]

* - сиды/пиры с внешних источников

   
 
Автор Сообщение

makkol Пол:Муж

07-Июл-2015 13:26

Пионеры-герои


Год выпуска: 2015
Жанр: драма
Страна: Россия
Режиссер: Наталья Кудряшова
В ролях: Наталья Кудряшова, Дарья Мороз, Алексей Митин, Александр Усердин, Светлана Письмиченко, Ёла Санько, Юрий Кузнецов, Александр Обласов, Владимир Капустин, Жанна Демихова
Сюжет фильма:
Ольга, Катя и Андрей давно приехали в Москву, они дружат со школы. Они вполне успешны. Ольга — актриса, Катя — работает в крупном PR-агентстве, Андрей политический аналитик. Они покупают машины, берут ипотеки, строят дачи. Живут как все. Но это не приносит им ни счастья, ни удовлетворения. Ощущение, «что все вроде нормально, но что-то не так» — лейтмотив жизни сегодняшних тридцатилетних. Их детство пришлось на советскую пору — когда дети мечтали о подвигах, верили в шпионов и светлое будущее, и никто не ожидал, что мечту о подвиге заменит мечта о стабильности. Люди больше не мечтают о великом. Они просто живут.

  • Мировая премьера: 6 февраля 2015
  • Российская премьера: 18 июня 2015


Качество видео: WEB-DLRip

Продолжительность: 01:55:22
Формат: AVI
Видео: XviD, 720x304, 24.000 fps, 1412 kbps
Аудио: русский, оригинал (iTunes), AC3 5.1, 48 kHz, 384 kbps

Код:

Общее
Полное имя                               : Pionerii.Geroii.avi
Формат                                   : AVI
Формат/Информация                        : Audio Video Interleave
Размер файла                             : 1,45 Гбайт
Продолжительность                        : 1 ч. 55 м.
Общий поток                              : 1805 Кбит/сек
Программа кодирования                    : VirtualDubMod 1.5.10.2 (build 2540/release)
Библиотека кодирования                   : VirtualDubMod build 2540/release

Видео
Идентификатор                            : 0
Формат                                   : MPEG-4 Visual
Профиль формата                          : Advanced Simple@L5
Параметр BVOP формата                    : 2
Параметр QPel формата                    : Нет
Параметр GMC формата                     : Без точки перехода
Параметр матрицы формата                 : Default (MPEG)
Идентификатор кодека                     : XVID
Идентификатор кодека/Подсказка           : XviD
Продолжительность                        : 1 ч. 55 м.
Битрейт                                  : 1412 Кбит/сек
Ширина                                   : 720 пикселей
Высота                                   : 304 пикселя
Соотношение сторон                       : 2,35:1
Частота кадров                           : 24,000 кадра/сек
Цветовое пространство                    : YUV
Субдискретизация насыщенности            : 4:2:0
Битовая глубина                          : 8 бит
Тип развёртки                            : Прогрессивная
Метод сжатия                             : С потерями
Бит/(Пиксели*Кадры)                      : 0.269
Размер потока                            : 1,14 Гбайт (78%)
Библиотека кодирования                   : XviD 1.2.1 (UTC 2008-12-04)

Аудио
Идентификатор                            : 1
Формат                                   : AC-3
Формат/Информация                        : Audio Coding 3
Расширение режима                        : CM (complete main)
Параметр Endianness формата              : Big
Идентификатор кодека                     : 2000
Продолжительность                        : 1 ч. 55 м.
Вид битрейта                             : Постоянный
Битрейт                                  : 384 Кбит/сек
Каналы                                   : 6 каналов
Расположение каналов                     : Front: L C R, Side: L R, LFE
Частота                                  : 48,0 КГц
Битовая глубина                          : 16 бит
Метод сжатия                             : С потерями
Размер потока                            : 317 Мбайт (21%)
Выравнивание                             : Разделение по промежуткам
Продолжительность промежутка             : 42  мс. (1,00 видеокадр)
Время предзагрузки промежутка            : 500  мс.
picpicpicpicpic
Для увеличения картинки щелкните мышкой по превью

Этот торрент недоступен для скачивания без регистрации, однако доступен по публичной magnet-ссылке (источники с публичных трекеров). Перед использованием ссылки прочтите, пожалуйста Пользовательское соглашение, а также как можно дольше оставайтесь на раздаче! Для того, чтобы скачать сам торрент-файл (который видит больше источников), а также для того, чтобы поблагодарить релизера, вам необходимо зарегистрироваться. Если регистрироваться лень - вы можете также попробовать скачать релиз по нашим партнерским ссылкам ниже.

[underverse.su].t55717.torrent
Трекер: Зарегистрирован   [ 07.07.2015 13:26 ]  

Статус: проверено (by Паукан at 08.07.2015 09:57)
Поблагодарили: 1 человек
Тип торрента: публичный - доступные источники с открытых трекеров: 
Размер: 1,45 GB (занимает 1/3 DVDR, для записи нужно 1 болванка DVDR/RW)
 
 
Похожие темы
Форум Тема Автор Торрент Отв. Посл. сооб.
Наше кино [HDDVDRip / BDRip / WEB-DL / HDTV 1080/720р] Пионеры-герои (Наталья Кудряшова) [2015 г., драма, WEB-DL 720p] makkol
10 | 0

0 | 528

8

07.07.2015 14:01

Наше кино [HDDVDRip / BDRip / WEB-DL / HDTV 1080/720р] Пионеры-герои (Наталья Кудряшова) [2015 г., драма, WEB-DL 1080p] makkol
6 | 0

0 | 741

15

07.07.2015 14:13

DrBond Пол:Муж

14-Июл-2015 18:05

По-началу, думал, что это очередной бред российского кинопрома, которому надо план по ильмам делать. И только на 70-й минуте картинка начинает проясняться. А концовка вообще наизнанку вывернула и тогда весь пазл собрался, и стал ясен весь сюжет.

В общем смотреть нужно без перемотки, а то теряется много ключей к фильму. Немного тошнотное зрелище, много лишнего и непонятного. Но просмотром остался доволен. Вполне возможно, что в стране много народу нынче живет, которые мыслями до сих пор в подвигах.

Яндекс.Метрика powered by Sphinx


В Н И М А Н И Е
Сайт не распространяет и не хранит электронные версии произведений, а лишь бесплатно и без коммерческой выгоды (не требуя взамен платы,
SMS и т.д.) предоставляет доступ к создаваемому пользователями каталогу ссылок на торрент-файлы, которые содержат только списки хеш-сумм.
Убедительная просьба с жалобами обращаться напрямую к пользователю, разместившему торрент файл.

Вверх