Loading...
Error

Часовщик (Алексей Феоктистов) [2013 г., боевик, криминальный, драма, WEB-DLRip]

Статистика раздачи
Размер:  1,37 GB   |    Зарегистрирован:  1 год 5 месяцев   |    Скачан:  36 раз

Полного источника не было: 13 дней

Сидов:  0  |  0 KB/s  ]   Личеров:  0  |  0 KB/s  ]

* - сиды/пиры с внешних источников

   
 
Автор Сообщение

makkol Пол:Муж

06-Июл-2015 23:50

Часовщик


Год выпуска: 2013
Жанр: боевик, криминальный, драма
Производство: Россия [ПРО100 Фильм]
Режиссер: Алексей Феоктистов
В ролях: Ольга Дибцева, Максим Дрозд, Андрей Харыбин, Борис Клюев, Олеся Поташинская, Дмитрий Супонин
Сюжет фильма:
Феликс, прозванный за свое увлечение коллекционированием часов «часовщиком», служит в секретном элитном подразделении «ликвидаторов». Он высокопрофессиональный безукоризненный киллер, который всегда работает по правилам — «чисто» во время и без следов. И это оборотная медаль его прозвища. У него всегда все точно и все «по часам».Такая работа требует полного самообладания и беспристрастности, и в своём деле ему нет равных. Феликс всегда работал один, но ему пришлось стать наставником молодого и отчаянного Бориса. Феликс хочет закончить свою карьеру. Но просто так выйти из дел нельзя и он начинает готовить себе замену. Но, как бы не хотел главный герой всех уважить, как известно, из такой профессии есть только один выход... Методичный профессионал и импульсивный ученик теперь на пару «устраняют проблемы», но рано или поздно они сойдутся в смертельной схватке...

Качество видео: WEB-DLRip

Продолжительность: 01:28:00
Формат: AVI
Видео: XviD, 720x400, 25.000 fps, 2000 kbps
Аудио: русский, оригинал, AC3 2.0, 48 kHz, 192 kbps

Код:

Общее
Полное имя                               : Chasovshik.2013.WEB-DLRip.ExKinoRay.avi
Формат                                   : AVI
Формат/Информация                        : Audio Video Interleave
Размер файла                             : 1,37 Гбайт
Продолжительность                        : 1 ч. 27 м.
Общий поток                              : 2226 Кбит/сек
Программа кодирования                    : VirtualDubMod 1.5.10.2 (build 2540/release)
Библиотека кодирования                   : VirtualDubMod build 2540/release

Видео
Идентификатор                            : 0
Формат                                   : MPEG-4 Visual
Профиль формата                          : Advanced Simple@L5
Параметр BVOP формата                    : Да
Параметр QPel формата                    : Нет
Параметр GMC формата                     : Без точки перехода
Параметр матрицы формата                 : Выборочная
Идентификатор кодека                     : XVID
Идентификатор кодека/Подсказка           : XviD
Продолжительность                        : 1 ч. 27 м.
Битрейт                                  : 2000 Кбит/сек
Ширина                                   : 720 пикселей
Высота                                   : 400 пикселей
Соотношение сторон                       : 16:9
Частота кадров                           : 25,000 кадров/сек
Цветовое пространство                    : YUV
Субдискретизация насыщенности            : 4:2:0
Битовая глубина                          : 8 бит
Тип развёртки                            : Прогрессивная
Метод сжатия                             : С потерями
Бит/(Пиксели*Кадры)                      : 0.269
Размер потока                            : 1,19 Гбайт (87%)
Библиотека кодирования                   : XviD 1.2.1 (UTC 2008-12-04)

Аудио
Идентификатор                            : 1
Формат                                   : AC-3
Формат/Информация                        : Audio Coding 3
Расширение режима                        : CM (complete main)
Параметр Endianness формата              : Big
Идентификатор кодека                     : 2000
Продолжительность                        : 1 ч. 27 м.
Вид битрейта                             : Постоянный
Битрейт                                  : 192 Кбит/сек
Каналы                                   : 2 канала
Расположение каналов                     : Front: L R
Частота                                  : 48,0 КГц
Битовая глубина                          : 16 бит
Метод сжатия                             : С потерями
Размер потока                            : 121 Мбайт (9%)
Выравнивание                             : Разделение по промежуткам
picpicpicpicpic
Для увеличения картинки щелкните мышкой по превью

Этот торрент недоступен для скачивания без регистрации, однако доступен по публичной magnet-ссылке (источники с публичных трекеров). Перед использованием ссылки прочтите, пожалуйста Пользовательское соглашение, а также как можно дольше оставайтесь на раздаче! Для того, чтобы скачать сам торрент-файл (который видит больше источников), а также для того, чтобы поблагодарить релизера, вам необходимо зарегистрироваться. Если регистрироваться лень - вы можете также попробовать скачать релиз по нашим партнерским ссылкам ниже.

[underverse.su].t55706.torrent
Трекер: Зарегистрирован   [ 06.07.2015 23:50 ]  

Статус: проверено (by nemos at 29.07.2015 18:59)
Поблагодарили: 2 человека
Тип торрента: публичный - доступные источники с открытых трекеров: 
Размер: 1,37 GB (занимает 0,31 DVDR, для записи нужно 1 болванка DVDR/RW)
 
 
Похожие темы
Форум Тема Автор Торрент Отв. Посл. сооб.
Наше кино [DVDRip, Low-Res HDRip, и т.д.] Часовщик (Алексей Феоктистов) [2013 г., Боевик, криминал, драма, TVRip] Чертёнок
168 | 5

1 | 1494

132

21.05.2013 06:19

Наше кино [HDDVDRip / BDRip / WEB-DL / HDTV 1080/720р] Часовщик (Алексей Феоктистов) [2013 г., боевик, криминальный, драма, WEB-DL 720p] makkol
11 | 0

0 | 714

37

06.07.2015 23:58


Яндекс.Метрика powered by Sphinx


В Н И М А Н И Е
Сайт не распространяет и не хранит электронные версии произведений, а лишь бесплатно и без коммерческой выгоды (не требуя взамен платы,
SMS и т.д.) предоставляет доступ к создаваемому пользователями каталогу ссылок на торрент-файлы, которые содержат только списки хеш-сумм.
Убедительная просьба с жалобами обращаться напрямую к пользователю, разместившему торрент файл.

Вверх