Loading...
Error

Оккупанты / Захватчики / The Occupants (Тодд Элкотт) [2014 г., триллер, ужасы, HDRip] DVO

Статистика раздачи
Размер:  1,37 GB   |    Зарегистрирован:  1 год 5 месяцев   |    Скачан:  6 раз

Полного источника не было: 1 год 3 месяца

Сидов:  0  |  0 KB/s  ]   Личеров:  0  |  0 KB/s  ]

* - сиды/пиры с внешних источников

   
 
Автор Сообщение

makkol Пол:Муж

05-Июл-2015 23:03

Оккупанты / Захватчики / The Occupants


Год выпуска: 2014
Жанр: триллер, ужасы
Производство: США [Blood Relative Productions]
Режиссер: Тодд Элкотт
В ролях: Кристен Ариза, Ашанти Браун, Мэйси Кратед, Мэри Пэт Фаррелл, Гэйл Голден, Тоби Хасс, Кэтрин Кэми, Кристин Милиоти
Сюжет фильма:
У Люси есть муж, новый дом и ребенок, но старые призраки не позволяют ей жить. Она пытается помочь душам освободиться от мучений и двигаться дальше, но вскоре обнаруживает, что призраки не хотят ее помощи.

  • Мировая премьера: 13 января 2014


Перевод: Сергей Скворцов
Озвучивание: DeadSno&Den904

Качество видео: HDRip

Продолжительность: 01:18:59
Формат: AVI
Видео: XviD, 720x400, 23.976 fps, 2020 kbps
Аудио: русский, любительский двухголосый закадровый, AC3 5.1,48 kHz, 448 kbps

Код:

Общее
Полное имя                               : The Occupants.2014.L2.HDRip.1400MB.avi
Формат                                   : AVI
Формат/Информация                        : Audio Video Interleave
Размер файла                             : 1,37 Гбайт
Продолжительность                        : 1 ч. 18 м.
Общий поток                              : 2477 Кбит/сек
Программа кодирования                    : VirtualDubMod 1.5.10.2 (build 2540/release)
Библиотека кодирования                   : VirtualDubMod build 2540/release

Видео
Идентификатор                            : 0
Формат                                   : MPEG-4 Visual
Идентификатор кодека                     : XVID
Идентификатор кодека/Подсказка           : XviD
Продолжительность                        : 1 ч. 18 м.
Продолжительность оригинала              : 42 м.
Битрейт                                  : 2020 кбит/сек
Ширина                                   : 720 пикселей
Высота                                   : 400 пикселей
Соотношение сторон                       : 16:9
Частота кадров                           : 23,976 кадра/сек
Цветовое пространство                    : YUV
Субдискретизация насыщенности            : 4:2:0
Метод сжатия                             : С потерями
Бит/(Пиксели*Кадры)                      : 1.992
Размер потока                            : 4,08 Гбайт

Аудио
Идентификатор                            : 1
Формат                                   : AC-3
Формат/Информация                        : Audio Coding 3
Расширение режима                        : CM (complete main)
Параметр Endianness формата              : Big
Идентификатор кодека                     : 2000
Продолжительность                        : 1 ч. 18 м.
Продолжительность оригинала              : 15 ч.
Вид битрейта                             : Постоянный
Битрейт                                  : 448 Кбит/сек
Каналы                                   : 6 каналов
Расположение каналов                     : Front: L C R, Side: L R, LFE
Частота                                  : 48,0 КГц
Битовая глубина                          : 16 бит
Метод сжатия                             : С потерями
Размер потока                            : 2,97 Гбайт
Выравнивание                             : Разделение по промежуткам
Продолжительность промежутка             : 42  мс. (1,00 видеокадр)
Время предзагрузки промежутка            : 500  мс.
picpicpicpicpic
Для увеличения картинки щелкните мышкой по превью

Этот торрент недоступен для скачивания без регистрации, однако доступен по публичной magnet-ссылке (источники с публичных трекеров). Перед использованием ссылки прочтите, пожалуйста Пользовательское соглашение, а также как можно дольше оставайтесь на раздаче! Для того, чтобы скачать сам торрент-файл (который видит больше источников), а также для того, чтобы поблагодарить релизера, вам необходимо зарегистрироваться. Если регистрироваться лень - вы можете также попробовать скачать релиз по нашим партнерским ссылкам ниже.

[underverse.su].t55696.torrent
Трекер: Зарегистрирован   [ 05.07.2015 23:03 ]  

Статус: проверено (by Ведьмочка at 06.07.2015 05:57)
Поблагодарили: пока никто не поблагодарил...
Тип торрента: публичный - доступные источники с открытых трекеров: 
Размер: 1,37 GB (занимает 0,31 DVDR, для записи нужно 1 болванка DVDR/RW)
 
 

Яндекс.Метрика powered by Sphinx


В Н И М А Н И Е
Сайт не распространяет и не хранит электронные версии произведений, а лишь бесплатно и без коммерческой выгоды (не требуя взамен платы,
SMS и т.д.) предоставляет доступ к создаваемому пользователями каталогу ссылок на торрент-файлы, которые содержат только списки хеш-сумм.
Убедительная просьба с жалобами обращаться напрямую к пользователю, разместившему торрент файл.

Вверх