Loading...
Error

Пригородная готика / Suburban Gothic (Ричард Бейтс мл.) [2014 г., ужасы, мелодрама, комедия, WEB-DLRip] MVO + Original

Статистика раздачи
Размер:  1,46 GB   |    Зарегистрирован:  1 год 5 месяцев   |    Скачан:  15 раз

Полного источника не было: 20 дней

Сидов:  0  |  0 KB/s  ]   Личеров:  0  |  0 KB/s  ]

* - сиды/пиры с внешних источников

   
 
Автор Сообщение

makkol Пол:Муж

04-Июл-2015 23:34

Пригородная готика / Suburban Gothic


Год выпуска: 2014
Жанр: ужасы, мелодрама, комедия
Производство: США [New Normal Films]
Режиссер: Ричард Бейтс мл.
В ролях: Мэттью Грей Гублер, Кэт Деннингс, Рэй Уайз, Барбара Нивен, Мьюз Уотсон, Сэлли Кёркленд, Мэл Родригез, Джеффри Комбс, Джон Уотерс, Ронни Джин Блевинс
Сюжет фильма:
У Рэймонда престижная степень магистра делового администрирования, но он не может найти работу. Он может связываться с паранормальными явлениями, но его озадачивает общение в чате с милой девушкой. Выгнанный из большой городской квартиры, Рэймонд возвращается домой к своей властной матери, отцу, бывшему качку, и одноклассникам с пивными животами. Но когда мстительный призрак начинает терроризировать небольшой городок, Рэймонд объединяется с Беккой, местной задиристой барменшой, чтобы разгадать тайну духа, угрожающего жизни каждого человека.

  • Мировая премьера: 19 июля 2014


Перевод: Алёна Сергеева
Озвучивание: Андрей Питерский, Камилла Юнусова, DEN904, DeadSno, Izanami, Gyllor, Robi Ainer

Качество видео: WEB-DLRip

Продолжительность: 01:30:24
Формат: AVI
Видео: XviD, 720x400, 23.976 fps, 1907 kbps
Аудио #1: русский, любительский многоголосый закадровый, AC3 2.0, 48 kHz, 192 kbps
Аудио #2: английский, оригинал, AC3 2.0, 48 kHz, 192 kbps

Код:

Общее
Полное имя                               : Prigorodnaja.gotika.2014.L.WEB-DLRip.avi
Формат                                   : AVI
Формат/Информация                        : Audio Video Interleave
Размер файла                             : 1,46 Гбайт
Продолжительность                        : 1 ч. 30 м.
Общий поток                              : 2306 Кбит/сек
Программа кодирования                    : VirtualDubMod 1.5.10.3 | www.virtualdub-fr.org || (build 2550/release)
Библиотека кодирования                   : VirtualDubMod build 2550/release

Видео
Идентификатор                            : 0
Формат                                   : MPEG-4 Visual
Профиль формата                          : Advanced Simple@L5
Параметр BVOP формата                    : 1
Параметр QPel формата                    : Нет
Параметр GMC формата                     : Без точки перехода
Параметр матрицы формата                 : Выборочная
Идентификатор кодека                     : XVID
Идентификатор кодека/Подсказка           : XviD
Продолжительность                        : 1 ч. 30 м.
Битрейт                                  : 1907 Кбит/сек
Ширина                                   : 720 пикселей
Высота                                   : 400 пикселей
Соотношение сторон                       : 16:9
Частота кадров                           : 23,976 кадра/сек
Цветовое пространство                    : YUV
Субдискретизация насыщенности            : 4:2:0
Битовая глубина                          : 8 бит
Тип развёртки                            : Прогрессивная
Метод сжатия                             : С потерями
Бит/(Пиксели*Кадры)                      : 0.263
Размер потока                            : 1,15 Гбайт (79%)
Библиотека кодирования                   : XviD 73

Аудио #1
Идентификатор                            : 1
Формат                                   : AC-3
Формат/Информация                        : Audio Coding 3
Расширение режима                        : CM (complete main)
Параметр Endianness формата              : Big
Идентификатор кодека                     : 2000
Продолжительность                        : 1 ч. 30 м.
Вид битрейта                             : Постоянный
Битрейт                                  : 192 Кбит/сек
Каналы                                   : 2 канала
Расположение каналов                     : Front: L R
Частота                                  : 48,0 КГц
Битовая глубина                          : 16 бит
Метод сжатия                             : С потерями
Размер потока                            : 124 Мбайт (8%)
Выравнивание                             : Разделение по промежуткам

Аудио #2
Идентификатор                            : 2
Формат                                   : AC-3
Формат/Информация                        : Audio Coding 3
Расширение режима                        : CM (complete main)
Параметр Endianness формата              : Big
Идентификатор кодека                     : 2000
Продолжительность                        : 1 ч. 30 м.
Вид битрейта                             : Постоянный
Битрейт                                  : 192 Кбит/сек
Каналы                                   : 2 канала
Расположение каналов                     : Front: L R
Частота                                  : 48,0 КГц
Битовая глубина                          : 16 бит
Метод сжатия                             : С потерями
Размер потока                            : 124 Мбайт (8%)
Выравнивание                             : Разделение по промежуткам
picpicpicpicpic
Для увеличения картинки щелкните мышкой по превью

Этот торрент недоступен для скачивания без регистрации, однако доступен по публичной magnet-ссылке (источники с публичных трекеров). Перед использованием ссылки прочтите, пожалуйста Пользовательское соглашение, а также как можно дольше оставайтесь на раздаче! Для того, чтобы скачать сам торрент-файл (который видит больше источников), а также для того, чтобы поблагодарить релизера, вам необходимо зарегистрироваться. Если регистрироваться лень - вы можете также попробовать скачать релиз по нашим партнерским ссылкам ниже.

[underverse.su].t55654.torrent
Трекер: Зарегистрирован   [ 04.07.2015 23:34 ]  

Статус: проверено (by Паукан at 05.07.2015 06:05)
Поблагодарили: пока никто не поблагодарил...
Тип торрента: публичный - доступные источники с открытых трекеров: 
Размер: 1,46 GB (занимает 1/3 DVDR, для записи нужно 1 болванка DVDR/RW)
 
 
Похожие темы
Форум Тема Автор Торрент Отв. Посл. сооб.
Зарубежное кино [HDDVDRip / BDRip / WEB-DL / HDTV 1080/720р] Пригородная готика / Suburban Gothic (Ричард Бейтс мл.) [2014 г., ужасы, мелодрама, комедия, WEB-DL 720p] MVO (Rus) + Original (Eng) + Subs (Eng) makkol
2 | 0

0 | 347

6

04.07.2015 23:49


Яндекс.Метрика powered by Sphinx


В Н И М А Н И Е
Сайт не распространяет и не хранит электронные версии произведений, а лишь бесплатно и без коммерческой выгоды (не требуя взамен платы,
SMS и т.д.) предоставляет доступ к создаваемому пользователями каталогу ссылок на торрент-файлы, которые содержат только списки хеш-сумм.
Убедительная просьба с жалобами обращаться напрямую к пользователю, разместившему торрент файл.

Вверх