Loading...
Error

Снайпер: Герой сопротивления (Снайпер: Последний выстрел) (Арман Геворгян) [2015 г., военный, драма, приключения, WEB-DLRip]

Статистика раздачи
Размер:  1,37 GB   |    Зарегистрирован:  1 год 5 месяцев   |    Скачан:  55 раз

Полного источника не было: 2 дня 21 час

Сидов:  0  |  0 KB/s  ]   Личеров:  0  |  0 KB/s  ]

* - сиды/пиры с внешних источников

   
 
Автор Сообщение

makkol Пол:Муж

04-Июл-2015 23:04

Снайпер: Герой сопротивления (Снайпер: Последний выстрел)


Год выпуска: 2015
Жанр: военный, драма, приключения
Производство: Россия [ООО "Нью Арт Синема Продакшн"]
Режиссер: Арман Геворгян
В ролях: Гоша Куценко, Денис Бургазлиев, Анна Снаткина, Владимир Гостюхин, Борис Романов, Дирк Мартенс, Юлия Кадушкевич, Георгий Сивохин, Сергей Широчин, Олег Вебер
Сюжет фильма:
Тяжелый 1941-й год. Немецкие войска продолжают наступление, сжигая целые города и села, оставляя после себя руины и пепелища. Кажется, уже ничто не спасет Советский Союз от поражения, а Красную Армию - от тотального уничтожения оккупантами. В эпицентре этих трагических событий оказываются идейные враги - красноармеец, снайпер Николай Волохов и сын белого офицера Андре Ренье. В других обстоятельствах они могли бы оказаться по разные стороны баррикад - ведь отца Волохова убил белогвардейский офицер. Но сейчас им нечего делить. У них один враг - немцы...

  • Мировая премьера: 7 мая 2015
  • Российская премьера: 9 мая 2015


Качество видео: WEB-DLRip

Продолжительность: 01:20:40
Формат: AVI
Видео: XviD, 720x304, 25.000 fps, 2033 kbps
Аудио: русский, оригинал (iTunes), AC3 2.0, 48 kHz, 384 kbps

Код:

Общее
Полное имя                               : Snajper.Geroj.soprotivlenija.2015.O.WEBDLRip.avi
Формат                                   : AVI
Формат/Информация                        : Audio Video Interleave
Размер файла                             : 1,37 Гбайт
Продолжительность                        : 1 ч. 20 м.
Общий поток                              : 2426 Кбит/сек
Программа кодирования                    : VirtualDubMod 1.5.10.3 | www.virtualdub-fr.org || (build 2550/release)
Библиотека кодирования                   : VirtualDubMod build 2550/release

Видео
Идентификатор                            : 0
Формат                                   : MPEG-4 Visual
Профиль формата                          : Advanced Simple@L5
Параметр BVOP формата                    : 2
Параметр QPel формата                    : Нет
Параметр GMC формата                     : Без точки перехода
Параметр матрицы формата                 : Default (MPEG)
Идентификатор кодека                     : XVID
Идентификатор кодека/Подсказка           : XviD
Продолжительность                        : 1 ч. 20 м.
Битрейт                                  : 2033 Кбит/сек
Ширина                                   : 720 пикселей
Высота                                   : 304 пикселя
Соотношение сторон                       : 2,35:1
Частота кадров                           : 25,000 кадров/сек
Цветовое пространство                    : YUV
Субдискретизация насыщенности            : 4:2:0
Битовая глубина                          : 8 бит
Тип развёртки                            : Прогрессивная
Метод сжатия                             : С потерями
Бит/(Пиксели*Кадры)                      : 0.354
Размер потока                            : 1,09 Гбайт (80%)
Библиотека кодирования                   : XviD 1.2.1 (UTC 2008-12-04)

Аудио
Идентификатор                            : 1
Формат                                   : AC-3
Формат/Информация                        : Audio Coding 3
Расширение режима                        : CM (complete main)
Параметр Endianness формата              : Big
Идентификатор кодека                     : 2000
Продолжительность                        : 1 ч. 20 м.
Вид битрейта                             : Постоянный
Битрейт                                  : 384 Кбит/сек
Каналы                                   : 2 канала
Расположение каналов                     : Front: L R
Частота                                  : 48,0 КГц
Битовая глубина                          : 16 бит
Метод сжатия                             : С потерями
Размер потока                            : 222 Мбайт (16%)
Выравнивание                             : Разделение по промежуткам
picpicpic
Для увеличения картинки щелкните мышкой по превью

Этот торрент недоступен для скачивания без регистрации, однако доступен по публичной magnet-ссылке (источники с публичных трекеров). Перед использованием ссылки прочтите, пожалуйста Пользовательское соглашение, а также как можно дольше оставайтесь на раздаче! Для того, чтобы скачать сам торрент-файл (который видит больше источников), а также для того, чтобы поблагодарить релизера, вам необходимо зарегистрироваться. Если регистрироваться лень - вы можете также попробовать скачать релиз по нашим партнерским ссылкам ниже.

[underverse.su].t55652.torrent
Трекер: Зарегистрирован   [ 04.07.2015 23:04 ]  

Статус: T временная (by Паукан at 05.07.2015 06:05)
Поблагодарили: пока никто не поблагодарил...
Тип торрента: публичный - доступные источники с открытых трекеров: 
Размер: 1,37 GB (занимает 0,31 DVDR, для записи нужно 1 болванка DVDR/RW)
 
 
Похожие темы
Форум Тема Автор Торрент Отв. Посл. сооб.
Наше кино [DVDRip, Low-Res HDRip, и т.д.] Снайпер: Герой сопротивления / Снайпер: Последний выстрел (Арман Геворгян) [2015 г., военный, боевик, HDTVRip-AVC] 90ytr90
46 | 3

0 | 899

13

20.05.2016 07:40

xUSSR сериалы Снайпер: Герой сопротивления (1-4 серии из 4) (Арман Геворгян) [2015 г., военный, драма, SatRip] nemos
37 | 43

1 | 990

64

13.06.2015 06:56

T Наше кино [HDDVDRip / BDRip / WEB-DL / HDTV 1080/720р] Снайпер: Герой сопротивления (Снайпер: Последний выстрел) (Арман Геворгян) [2015 г., военный, драма, приключения, WEB-DL 720p] makkol
135 | 3

0 | 1012

72

04.07.2015 23:17


Яндекс.Метрика powered by Sphinx


В Н И М А Н И Е
Сайт не распространяет и не хранит электронные версии произведений, а лишь бесплатно и без коммерческой выгоды (не требуя взамен платы,
SMS и т.д.) предоставляет доступ к создаваемому пользователями каталогу ссылок на торрент-файлы, которые содержат только списки хеш-сумм.
Убедительная просьба с жалобами обращаться напрямую к пользователю, разместившему торрент файл.

Вверх