Loading...
Error

Каспер / Casper (Брэд Силберлинг) [1995 г., комедия, семейный, фэнтези, DVDRip] MVO + AVO + Original

Статистика раздачи
Размер:  1,45 GB   |    Зарегистрирован:  1 год 5 месяцев   |    Скачан:  6 раз

Полного источника не было: 3 месяца 20 дней

Сидов:  0  |  0 KB/s  ]   Личеров:  0  |  0 KB/s  ]

* - сиды/пиры с внешних источников

   
 
Автор Сообщение

makkol Пол:Муж

04-Июл-2015 14:04

Каспер / Casper
«Дружба превыше всего»


Год выпуска: 1995
Жанр: комедия, семейный, фэнтези
Производство: США [Universal Pictures]
Режиссер: Брэд Силберлинг
В ролях: Билл Пуллман, Кристина Риччи, Чонси Леопарди, Спенсер Врумэн, Малачи Пирсон, Кэти Мориарти, Эрик Айдл, Бен Стайн, Дон Новелло, Фред Роджерс
Сюжет фильма:
Фильм, созданный фирмой Стивена Спилберга и при его участии в качестве исполнительного продюсера. Главный герой фильма — созданное мастерством мультипликаторов маленькое дружелюбное приведение по имени Каспер, не желающее походить на своих хулиганствующих собратьев.

Его дружба с девочкой-подростком Кэт помогает ей и ее отцу, доктору Харви, справиться с опасностями, поджидающими их в населенном призраками доме. Законы дружбы и доброе сердце заставляют Каспера ради счастья своих друзей пожертвовать возможностью вновь стать человеком.

  • Мировая премьера: 26 мая 1995


Качество видео: DVDRip

Продолжительность: 01:35:55
Формат: AVI
Видео: XviD, 704x384, 25.000 fps, 1573 kbps
Аудио #1: русский, профессиональный многоголосый закадровый, AC3 2.0, 48 kHz, 192 kbps
Аудио #2: русский, авторский одноголосый закадровый (Павел Санаев), AC3 2.0, 48 kHz, 192 kbps
Аудио #3: английский, оригинал, MP3 2.0, 48 kHz, 192 kbps

Код:

Общее
Полное имя                               : Kasper.(DVDRip,XviD,Rus,Eng).HeDgEhOt.&.FenixClub.avi
Формат                                   : AVI
Формат/Информация                        : Audio Video Interleave
Размер файла                             : 1,45 Гбайт
Продолжительность                        : 1 ч. 35 м.
Общий поток                              : 2171 Кбит/сек
Название фильма                          : Каспер / Casper (1995)
Авторское право                          : HeDgEhOt® & FenixClub

Видео
Идентификатор                            : 0
Формат                                   : MPEG-4 Visual
Профиль формата                          : Advanced Simple@L5
Параметр BVOP формата                    : 1
Параметр QPel формата                    : Нет
Параметр GMC формата                     : Без точки перехода
Параметр матрицы формата                 : Выборочная
Идентификатор кодека                     : XVID
Идентификатор кодека/Подсказка           : XviD
Продолжительность                        : 1 ч. 35 м.
Битрейт                                  : 1496 Кбит/сек
Ширина                                   : 704 пикселя
Высота                                   : 384 пикселя
Соотношение сторон                       : 1,85:1
Частота кадров                           : 25,000 кадров/сек
Цветовое пространство                    : YUV
Субдискретизация насыщенности            : 4:2:0
Битовая глубина                          : 8 бит
Тип развёртки                            : Прогрессивная
Метод сжатия                             : С потерями
Бит/(Пиксели*Кадры)                      : 0.221
Размер потока                            : 1,00 Гбайт (69%)
Библиотека кодирования                   : XviD 1.1.2 (UTC 2006-11-01)

Аудио #1
Идентификатор                            : 1
Формат                                   : AC-3
Формат/Информация                        : Audio Coding 3
Расширение режима                        : CM (complete main)
Параметр Endianness формата              : Big
Идентификатор кодека                     : 2000
Продолжительность                        : 1 ч. 35 м.
Вид битрейта                             : Постоянный
Битрейт                                  : 192 Кбит/сек
Каналы                                   : 2 канала
Расположение каналов                     : Front: L R
Частота                                  : 48,0 КГц
Битовая глубина                          : 16 бит
Метод сжатия                             : С потерями
Размер потока                            : 132 Мбайт (9%)
Выравнивание                             : Разделение по промежуткам
Язык                                     : Русский / English

Аудио #2
Идентификатор                            : 2
Формат                                   : AC-3
Формат/Информация                        : Audio Coding 3
Расширение режима                        : CM (complete main)
Параметр Endianness формата              : Big
Идентификатор кодека                     : 2000
Продолжительность                        : 1 ч. 35 м.
Вид битрейта                             : Постоянный
Битрейт                                  : 192 Кбит/сек
Каналы                                   : 2 канала
Расположение каналов                     : Front: L R
Частота                                  : 48,0 КГц
Битовая глубина                          : 16 бит
Метод сжатия                             : С потерями
Размер потока                            : 132 Мбайт (9%)
Выравнивание                             : Соединение по промежуткам

Аудио #3
Идентификатор                            : 3
Формат                                   : AC-3
Формат/Информация                        : Audio Coding 3
Расширение режима                        : CM (complete main)
Параметр Endianness формата              : Big
Идентификатор кодека                     : 2000
Продолжительность                        : 1 ч. 35 м.
Вид битрейта                             : Постоянный
Битрейт                                  : 192 Кбит/сек
Каналы                                   : 2 канала
Расположение каналов                     : Front: L R
Частота                                  : 48,0 КГц
Битовая глубина                          : 16 бит
Метод сжатия                             : С потерями
Размер потока                            : 132 Мбайт (9%)
Выравнивание                             : Соединение по промежуткам
picpicpicpicpic
Для увеличения картинки щелкните мышкой по превью

Этот торрент недоступен для скачивания без регистрации, однако доступен по публичной magnet-ссылке (источники с публичных трекеров). Перед использованием ссылки прочтите, пожалуйста Пользовательское соглашение, а также как можно дольше оставайтесь на раздаче! Для того, чтобы скачать сам торрент-файл (который видит больше источников), а также для того, чтобы поблагодарить релизера, вам необходимо зарегистрироваться. Если регистрироваться лень - вы можете также попробовать скачать релиз по нашим партнерским ссылкам ниже.

[underverse.su].t55650.torrent
Трекер: Зарегистрирован   [ 04.07.2015 14:04 ]  

Статус: проверено (by матроскин at 04.07.2015 21:00)
Поблагодарили: пока никто не поблагодарил...
Тип торрента: публичный - доступные источники с открытых трекеров: 
Размер: 1,45 GB (занимает 1/3 DVDR, для записи нужно 1 болванка DVDR/RW)
 
 

Яндекс.Метрика powered by Sphinx


В Н И М А Н И Е
Сайт не распространяет и не хранит электронные версии произведений, а лишь бесплатно и без коммерческой выгоды (не требуя взамен платы,
SMS и т.д.) предоставляет доступ к создаваемому пользователями каталогу ссылок на торрент-файлы, которые содержат только списки хеш-сумм.
Убедительная просьба с жалобами обращаться напрямую к пользователю, разместившему торрент файл.

Вверх