Loading...
Error

Мистер Магу / Mr. Magoo (Стэнли Тонг) [1997 г., комедия, WEB-DLRip] MVO + 2-AVO

Статистика раздачи
Размер:  1,46 GB   |    Зарегистрирован:  1 год 5 месяцев   |    Скачан:  9 раз

Полного источника не было: 1 год 2 месяца

Сидов:  0  |  0 KB/s  ]   Личеров:  0  |  0 KB/s  ]

* - сиды/пиры с внешних источников

   
 
Автор Сообщение

makkol Пол:Муж

04-Июл-2015 12:38

Мистер Магу / Mr. Magoo


Год выпуска: 1997
Жанр: комедия
Производство: США [Nearsighted Productions, Walt Disney Pictures]
Режиссер: Стэнли Тонг
В ролях: Лесли Нильсен, Келли Линч, Мэтт Кислар, Ник Чинланд, Стивен Тоболовски, Эрни Хадсон, Дженнифер Гарнер, Малкольм МакДауэлл, Мигель Феррер, Л. Харви Голд
Сюжет фильма:
Мистер Магу, эксцентричный миллионер, был приглашен на открытие музея, в центре экспозиции которого - «Звезда Куристана», драгоценный камень, не имеющий цены. Преступники решили испортить всем праздник и украсть его, но по невероятной случайности ювелирный шедевр оказывается у Мистера Магу. Злоумышленники и ФБР отправляются на поиски.
Ситуация осложняется тем, что незадачливый миллионер чудовищно близорук и принципиально не носит очков. Зато его симпатичный бульдог видит за двоих.

  • Мировая премьера: 25 декабря 1997


Качество видео: WEB-DLRip

Продолжительность: 01:27:33
Формат: AVI
Видео: XviD, 720x384, 23.976 fps, 1796 kbps
Аудио #1: русский, профессиональный многоголосый закадровый (ОРТ), AC3 2.0, 48 kHz, 192 kbps
Аудио #2: русский, авторский одноголосый закадровый (Юрий Живов), AC3 2.0, 48 kHz, 192 kbps
Аудио #3: русский, авторский одноголосый закадровый (Сергей Визгунов), AC3 2.0, 48 kHz, 192 kbps

Код:

Общее
Полное имя : Mr.Magoo.1997.WEB-DLRip.avi
Формат : AVI
Формат/Информация : Audio Video Interleave
Размер файла : 1,46 Гбайт
Продолжительность : 1 ч. 27 м.
Общий поток : 2391 Кбит/сек
Программа кодирования : VirtualDubMod 1.5.10.2 (build 2542/release)
Библиотека кодирования : VirtualDubMod build 2542/release

Видео
Идентификатор : 0
Формат : MPEG-4 Visual
Профиль формата : Advanced Simple@L5
Параметр BVOP формата : 1
Параметр QPel формата : Нет
Параметр GMC формата : Без точки перехода
Параметр матрицы формата : Выборочная
Идентификатор кодека : XVID
Идентификатор кодека/Подсказка : XviD
Продолжительность : 1 ч. 27 м.
Битрейт : 1796 Кбит/сек
Ширина : 720 пикс.
Высота : 384 пикс.
Соотношение сторон : 1,875
Частота кадров : 23,976 кадр/сек
Цветовое пространство : YUV
Подвыборка цветности : 4:2:0
Битовая глубина : 8 бит
Тип развёртки : Прогрессивная
Метод сжатия : С потерями
Бит/(Пиксели*Кадры) : 0.271
Размер потока : 1,10 Гбайт (75%)
Библиотека кодирования : XviD 73

Аудио #1
Идентификатор : 1
Формат : AC-3
Формат/Информация : Audio Coding 3
Расширение режима : CM (complete main)
Идентификатор кодека : 2000
Продолжительность : 1 ч. 27 м.
Вид битрейта : Постоянный
Битрейт : 192 Кбит/сек
Канал(ы) : 2 канала(ов)
Расположение каналов : Front: L R
Частота : 48,0 КГц
Битовая глубина : 16 бит
Метод сжатия : С потерями
Размер потока : 120 Мбайт (8%)
Выравнивание : Разделение по промежуткам
Продолжительность промежутка : 42 мс. (1,00 видеокадр)
Время предзагрузки промежутка : 500 ms

Аудио #2
Идентификатор : 2
Формат : AC-3
Формат/Информация : Audio Coding 3
Расширение режима : CM (complete main)
Идентификатор кодека : 2000
Продолжительность : 1 ч. 27 м.
Вид битрейта : Постоянный
Битрейт : 192 Кбит/сек
Канал(ы) : 2 канала(ов)
Расположение каналов : Front: L R
Частота : 48,0 КГц
Битовая глубина : 16 бит
Метод сжатия : С потерями
Размер потока : 120 Мбайт (8%)
Выравнивание : Разделение по промежуткам
Продолжительность промежутка : 42 мс. (1,00 видеокадр)
Время предзагрузки промежутка : 500 ms

Аудио #3
Идентификатор : 3
Формат : AC-3
Формат/Информация : Audio Coding 3
Расширение режима : CM (complete main)
Идентификатор кодека : 2000
Продолжительность : 1 ч. 27 м.
Вид битрейта : Постоянный
Битрейт : 192 Кбит/сек
Канал(ы) : 2 канала(ов)
Расположение каналов : Front: L R
Частота : 48,0 КГц
Битовая глубина : 16 бит
Метод сжатия : С потерями
Размер потока : 120 Мбайт (8%)
Выравнивание : Разделение по промежуткам
Продолжительность промежутка : 42 мс. (1,00 видеокадр)
Время предзагрузки промежутка : 500 ms
picpicpicpicpic
Для увеличения картинки щелкните мышкой по превью

Этот торрент недоступен для скачивания без регистрации, однако доступен по публичной magnet-ссылке (источники с публичных трекеров). Перед использованием ссылки прочтите, пожалуйста Пользовательское соглашение, а также как можно дольше оставайтесь на раздаче! Для того, чтобы скачать сам торрент-файл (который видит больше источников), а также для того, чтобы поблагодарить релизера, вам необходимо зарегистрироваться. Если регистрироваться лень - вы можете также попробовать скачать релиз по нашим партнерским ссылкам ниже.

[underverse.su].t55648.torrent
Трекер: Зарегистрирован   [ 04.07.2015 12:38 ]  

Статус: проверено (by Ведьмочка at 04.07.2015 12:44)
Поблагодарили: 1 человек
Тип торрента: публичный - доступные источники с открытых трекеров: 
Размер: 1,46 GB (занимает 0,33 DVDR, для записи нужно 1 болванка DVDR/RW)
 
 

Яндекс.Метрика powered by Sphinx


В Н И М А Н И Е
Сайт не распространяет и не хранит электронные версии произведений, а лишь бесплатно и без коммерческой выгоды (не требуя взамен платы,
SMS и т.д.) предоставляет доступ к создаваемому пользователями каталогу ссылок на торрент-файлы, которые содержат только списки хеш-сумм.
Убедительная просьба с жалобами обращаться напрямую к пользователю, разместившему торрент файл.

Вверх