Loading...
Error

Номер семь / Boy 7 (Лауренс Блок) [2015 г., Фантастика, Боевик, Триллер, DVDRip] VO (RUS)

Статистика раздачи
Размер:  1,3 GB   |    Зарегистрирован:  1 год 5 месяцев   |    Скачан:  120 раз

Полного источника не было: 6 часов

Сидов:  0  |  0 KB/s  ]   Личеров:  0  |  0 KB/s  ]

* - сиды/пиры с внешних источников

   
 
Автор Сообщение

Ведьмочка Пол:Жен

03-Июл-2015 17:43

Номер семь / Boy 7


Страна: Нидерланды , Венгрия
Год выпуска: 2015
Жанр: Фантастика, Боевик, Триллер
Продолжительность: 01:27:45
Режиссёр: Лауренс Блок
В ролях: Маттис ван де Санде Бакхуйзен, Элла-Джун Генрард, Тиго Гернандт, Yannick Jozefzoon, Джуст Конинг, Халина Рейн, Рене Саутендейк, Менно Ван Бекум, Ганс Дагелет, Бо Шнайдер
Сюжет фильма:
В будущем, государство контролирует жизнь каждого человека. Свободы личности больше не существует. Стоящий у власти диктатор приказывает собрать со всей страны талантливых молодых людей и отправить их на учебу в секретную академию, где из них сделают преданных слуг режима. В этой академии у студентов нет имён. Только номера...

Озвучивание:
  • Любительский, Одноголосный, Русский [Andi]

Качество видео: DVDRip
Формат: AVI

Видео: DivX 5, 720x384 (1.85:1), 25.000, ~1920 Кбит/сек
Аудио: AC-3, 192 Кбит/сек, 2 Канала, 48.0 КГц



Общее
Полное имя : \Boy.7.2015.L1.DVDRip.avi
Формат : AVI
Формат/Информация : Audio Video Interleave
Размер файла : 1,30 Гбайт
Продолжительность : 1 ч. 27 м.
Общий поток : 2121 Кбит/сек

Видео
Идентификатор : 0
Формат : MPEG-4 Visual
Профиль формата : Advanced Simple@L5
Параметр BVOP формата : 1
Параметр QPel формата : Нет
Параметр GMC формата : Без точки перехода
Параметр матрицы формата : Default (MPEG)
Идентификатор кодека : DX50
Идентификатор кодека/Подсказка : DivX 5
Продолжительность : 1 ч. 27 м.
Битрейт : 1920 Кбит/сек
Ширина : 720 пикселей
Высота : 384 пикселя
Соотношение сторон : 1,85:1
Частота кадров : 25,000 кадров/сек
Цветовое пространство : YUV
Субдискретизация насыщенности : 4:2:0
Битовая глубина : 8 бит
Тип развёртки : Прогрессивная
Метод сжатия : С потерями
Бит/(Пиксели*Кадры) : 0.278
Размер потока : 1,18 Гбайт (90%)
Библиотека кодирования : XviD 1.2.1 (UTC 2008-12-04)

Аудио
Идентификатор : 1
Формат : AC-3
Формат/Информация : Audio Coding 3
Расширение режима : CM (complete main)
Параметр Endianness формата : Big
Идентификатор кодека : 2000
Продолжительность : 1 ч. 27 м.
Вид битрейта : Постоянный
Битрейт : 192 Кбит/сек
Каналы : 2 канала
Расположение каналов : Front: L R
Частота : 48,0 КГц
Метод сжатия : С потерями
Размер потока : 121 Мбайт (9%)
Выравнивание : Разделение по промежуткам
Продолжительность промежутка : 40 мс. (1,00 видеокадр)
Время предзагрузки промежутка : 500 мс.


picpicpicpicpic
Для увеличения картинки щелкните мышкой по превью



Этот торрент недоступен для скачивания без регистрации, однако доступен по публичной magnet-ссылке (источники с публичных трекеров). Перед использованием ссылки прочтите, пожалуйста Пользовательское соглашение, а также как можно дольше оставайтесь на раздаче! Для того, чтобы скачать сам торрент-файл (который видит больше источников), а также для того, чтобы поблагодарить релизера, вам необходимо зарегистрироваться. Если регистрироваться лень - вы можете также попробовать скачать релиз по нашим партнерским ссылкам ниже.

[underverse.su].t55643.torrent
Трекер: Зарегистрирован   [ 03.07.2015 17:43 ]  

Статус: проверено (by Ведьмочка at 03.07.2015 17:46)
Поблагодарили: 4 человека
Тип торрента: публичный - доступные источники с открытых трекеров: 
Размер: 1,3 GB (занимает 0,3 DVDR, для записи нужно 1 болванка DVDR/RW)
 
 

DrBond Пол:Муж

04-Июл-2015 08:32

Достойный сюжет!
Режиссер постарался на славу! Фильм с самого начала до конца держит зрителя у экрана телевизора в ожидании развязки. И если по-началу мало, что понятно в сюжетной линии, то ближе к середине всё начинает аккуратно располагаться на полочках:)
На счет фантастики. Видимо режиссеру хозяева мира рекомендовали отнести фильм к этому жанру, т.к. все события уж слишком напоминают историю за последние несколько лет:)
Есть много вопросов к фильму, если начать задумываться над происходящим, но это в ровной мере не мешает наслаждаться фильмом.
Скачивайте, не пожалеете :wink:

krisso Пол:Муж

13-Авг-2015 04:07

Оказался достаточно интересный фильм, несмотря на малобюджетность.

Яндекс.Метрика powered by Sphinx


В Н И М А Н И Е
Сайт не распространяет и не хранит электронные версии произведений, а лишь бесплатно и без коммерческой выгоды (не требуя взамен платы,
SMS и т.д.) предоставляет доступ к создаваемому пользователями каталогу ссылок на торрент-файлы, которые содержат только списки хеш-сумм.
Убедительная просьба с жалобами обращаться напрямую к пользователю, разместившему торрент файл.

Вверх