Loading...
Error

Астрал 3 / Insidious: Chapter 3 (Ли Уоннелл) [2015 г., Ужасы, WEBRip] Dub (RUS, Чистый звук)

Статистика раздачи
Размер:  1,37 GB   |    Зарегистрирован:  1 год 5 месяцев   |    Скачан:  38 раз

Полного источника не было: 2 дня 10 часов

Сидов:  0  |  0 KB/s  ]   Личеров:  0  |  0 KB/s  ]

* - сиды/пиры с внешних источников

   
 
Автор Сообщение

Ведьмочка Пол:Жен

03-Июл-2015 13:46

Астрал 3 / Insidious: Chapter 3
«У каждой истории есть начало...»


Страна: Канада , США
Год выпуска: 2015
Жанр: Ужасы
Продолжительность: 01:31:56
Режиссёр: Ли Уоннелл
В ролях: Стефани Скотт, Дермот Малруни, Энгус Сэмпсон, Ли Уоннелл, Лин Шэй, Тейт Берни, Майкл Рид МакКей, Стив Култер, Хейли Кийоко, Корбетт Так
Сюжет фильма:
История о том, как одаренный экстрасенс Элис Рейнер неохотно соглашается использовать свои способности для установления связи с мертвыми, чтобы помочь девочке-подростку, которая стала мишенью для опасной сверхъестественной сущности.

Озвучивание:
  • Дублированный, Русский [Чистый звук]

Качество видео: WEBRip
Формат: AVI

Видео: XviD, 720x304 (2.35:1), 23.976, ~1817 Кбит/сек
Аудио: AC-3, 192 Кбит/сек, 2 Канала, 48.0 КГц

Присутствуют вшитые неотключаемые китайские субтитры!



Общее
Полное имя : \Astral.3.2015.D.WEBRip.1400MB.avi
Формат : AVI
Формат/Информация : Audio Video Interleave
Размер файла : 1,37 Гбайт
Продолжительность : 1 ч. 37 м.
Общий поток : 2019 Кбит/сек
Название фильма : Astral.3.2015.Dt.WEBRip.1400MB.ELEKTRI4KA.uniongang.tv
Режиссёр : Carl Gaus
Программа кодирования : VirtualDubMod 1.5.10.3 | www.virtualdub-fr.org || (build 2550/release)
Авторское право : ELEKTRI4KA&UNIONGANG

Видео
Идентификатор : 0
Формат : MPEG-4 Visual
Профиль формата : Advanced Simple@L5
Параметр BVOP формата : 2
Параметр QPel формата : Нет
Параметр GMC формата : Без точки перехода
Параметр матрицы формата : Default (MPEG)
Идентификатор кодека : XVID
Идентификатор кодека/Подсказка : XviD
Продолжительность : 1 ч. 37 м.
Битрейт : 1817 Кбит/сек
Ширина : 720 пикселей
Высота : 304 пикселя
Соотношение сторон : 2,35:1
Частота кадров : 23,976 кадра/сек
Цветовое пространство : YUV
Субдискретизация насыщенности : 4:2:0
Битовая глубина : 8 бит
Тип развёртки : Прогрессивная
Метод сжатия : С потерями
Бит/(Пиксели*Кадры) : 0.346
Размер потока : 1,24 Гбайт (90%)
Библиотека кодирования : XviD 1.2.1 (UTC 2008-12-04)

Аудио
Идентификатор : 1
Формат : AC-3
Формат/Информация : Audio Coding 3
Расширение режима : CM (complete main)
Параметр Endianness формата : Big
Идентификатор кодека : 2000
Продолжительность : 1 ч. 37 м.
Вид битрейта : Постоянный
Битрейт : 192 Кбит/сек
Каналы : 2 канала
Расположение каналов : Front: L R
Частота : 48,0 КГц
Метод сжатия : С потерями
Размер потока : 134 Мбайт (10%)
Выравнивание : Разделение по промежуткам
Продолжительность промежутка : 42 мс. (1,00 видеокадр)
Время предзагрузки промежутка : 500 мс.


picpicpicpicpic
Для увеличения картинки щелкните мышкой по превью



Этот торрент недоступен для скачивания без регистрации, однако доступен по публичной magnet-ссылке (источники с публичных трекеров). Перед использованием ссылки прочтите, пожалуйста Пользовательское соглашение, а также как можно дольше оставайтесь на раздаче! Для того, чтобы скачать сам торрент-файл (который видит больше источников), а также для того, чтобы поблагодарить релизера, вам необходимо зарегистрироваться. Если регистрироваться лень - вы можете также попробовать скачать релиз по нашим партнерским ссылкам ниже.

[underverse.su].t55635.torrent
Трекер: Зарегистрирован   [ 03.07.2015 13:46 ]  

Статус: T временная (by Ведьмочка at 03.07.2015 13:47)
Поблагодарили: 1 человек
Тип торрента: публичный - доступные источники с открытых трекеров: 
Размер: 1,37 GB (занимает 0,31 DVDR, для записи нужно 1 болванка DVDR/RW)
 
 
Похожие темы
Форум Тема Автор Торрент Отв. Посл. сооб.
T Зарубежное кино [DVDRip, Low-Res HDRip, и т.д.] Астрал 3 / Insidious: Chapter 3 (Ли Уоннелл) [2015 г., ужасы, WEB-DLRip] Dub makkol
383 | 3

0 | 373

13

16.09.2015 22:13

T Зарубежное кино [DVDRip, Low-Res HDRip, и т.д.] Астрал 3 / Insidious: Chapter 3 (Ли Уоннелл) [2015 г., ужасы, триллер, драма, WEB-DLRip-AVC] Dub ultarasbarcelona
9 | 0

0 | 522

15

18.09.2015 17:29

T Зарубежное кино [HDDVDRip / BDRip / WEB-DL / HDTV 1080/720р] Астрал 3 / Insidious: Chapter 3 (Ли Уоннелл) [2015 г., Ужасы, WEBRip 720p] Dub (RUS, Чистый звук) Ведьмочка
41 | 1

0 | 494

7

03.07.2015 13:26

T Зарубежное кино [HDDVDRip / BDRip / WEB-DL / HDTV 1080/720р] Астрал 3 / Insidious: Chapter 3 (Ли Уоннелл) [2015 г., Ужасы, WEBRip 1080p] Dub (RUS, Чистый звук) + Original (ENG) Ведьмочка
119 | 1

0 | 697

34

03.07.2015 13:34

T Зарубежное кино [HDDVDRip / BDRip / WEB-DL / HDTV 1080/720р] Астрал 3 / Insidious: Chapter 3 (Ли Уоннелл) [2015 г., ужасы, WEB-DL 720p] Dub makkol
39 | 1

0 | 324

10

16.09.2015 22:22

T Зарубежное кино [HDDVDRip / BDRip / WEB-DL / HDTV 1080/720р] Астрал 3 / Insidious: Chapter 3 (Ли Уоннелл) [2015 г., ужасы, WEB-DL 1080p] Dub makkol
16 | 0

0 | 399

23

16.09.2015 22:30

T Новинки кино [CAMRip, TS, DVDScr, WP, TC] Астрал 3 / Insidious: Chapter 3 (Ли Уоннелл) [2015 г., ужасы, CAMRip] Dub Паукан
10 | 0

0 | 750

16

08.06.2015 09:26

T Новинки кино [CAMRip, TS, DVDScr, WP, TC] Астрал 3 / Insidious: Chapter 3 (Ли Уоннелл) [2015 г., Ужасы, WEBRip] Dub (RUS, Звук с TS) Ведьмочка
24 | 0

2 | 819

43

03.07.2015 13:06


Яндекс.Метрика powered by Sphinx


В Н И М А Н И Е
Сайт не распространяет и не хранит электронные версии произведений, а лишь бесплатно и без коммерческой выгоды (не требуя взамен платы,
SMS и т.д.) предоставляет доступ к создаваемому пользователями каталогу ссылок на торрент-файлы, которые содержат только списки хеш-сумм.
Убедительная просьба с жалобами обращаться напрямую к пользователю, разместившему торрент файл.

Вверх