Loading...
Error

Наруто: Последний фильм / The Last: Naruto the Movie (Цунэо Кобаяси) [2014 г., аниме, боевик, комедия, приключения, WEB-DL 1080p] Dub

Статистика раздачи
Размер:  4,18 GB   |    Зарегистрирован:  1 год 5 месяцев   |    Скачан:  13 раз

Полного источника не было: 1 месяц 19 дней

Сидов:  0  |  0 KB/s  ]   Личеров:  0  |  0 KB/s  ]

* - сиды/пиры с внешних источников

   
 
Автор Сообщение

makkol Пол:Муж

03-Июл-2015 13:21

Наруто: Последний фильм / The Last: Naruto the Movie


Год выпуска: 2014
Жанр: аниме, боевик, комедия, приключения
Производство: Япония [Aniplex, Dentsu, Pierrot]
Режиссер: Цунэо Кобаяси
Роли озвучивали: Дзюнко Такэути, Нана Мидзуки, Дзюн Фукуяма, Тиэ Накамура, Сётаро Морикубо, Сатоси Хино, Акира Исида, Хидеаки Тезука, Юрика Хино, Томоми Нисимура
Сюжет фильма:
Спустя годы после событий Четвертой Мировой Войны Луна, в которую давным-давно Рикудо Сэннин запечатал Гэдо Мазо, начинает приближаться к Земле, угрожая превратиться в метеор и уничтожить все живое. В это нелегкое время таинственный человек, обладающий бьякуганом, похищает сестру Хинаты, Ханаби. И теперь уже взрослые Наруто и его друзья отправляются, чтобы спасти Ханаби и принять участие в финальной битве, которая решит судьбу всего мира!

  • Мировая премьера: 6 декабря 2014
  • Российская премьера: 4 июня 2015


Качество видео: WEB-DL 1080p

Продолжительность: 01:51:54
Формат: MKV
Видео: MPEG-4 AVC, 1920x1040, 24.000 fps, 4861 kbps
Аудио: русский, дублированный (iTunes), AC3 5.1, 48 kHz, 384 kbps

Код:

Format                         : Matroska
Format version                 : Version 4 / Version 2
File size                      : 4.18 GiB
Duration                       : 1h 51mn
Overall bit rate               : 5 351 Kbps
Encoded date                   : UTC 2015-07-01 18:23:41
Writing application            : mkvmerge v6.9.1 ('Blue Panther') 64bit built on Apr 18 2014 18:23:38
Writing library                : libebml v1.3.0 + libmatroska v1.4.1

Video
ID                             : 1
Format                         : AVC
Format/Info                    : Advanced Video Codec
Format profile                 : High@L4.0
Format settings, CABAC         : Yes
Format settings, ReFrames      : 4 frames
Codec ID                       : V_MPEG4/ISO/AVC
Duration                       : 1h 51mn
Bit rate                       : 4 861 Kbps
Width                          : 1 920 pixels
Height                         : 1 040 pixels
Display aspect ratio           : 1.85:1
Frame rate mode                : Constant
Frame rate                     : 24.000 fps
Color space                    : YUV
Chroma subsampling             : 4:2:0
Bit depth                      : 8 bits
Scan type                      : Progressive
Bits/(Pixel*Frame)             : 0.101
Stream size                    : 3.80 GiB (91%)
Language                       : English
Default                        : Yes
Forced                         : No
Color primaries                : BT.709
Transfer characteristics       : BT.709
Matrix coefficients            : BT.709

Audio
ID                             : 2
Format                         : AC-3
Format/Info                    : Audio Coding 3
Mode extension                 : CM (complete main)
Format settings, Endianness    : Big
Codec ID                       : A_AC3
Duration                       : 1h 51mn
Bit rate mode                  : Constant
Bit rate                       : 384 Kbps
Channel(s)                     : 6 channels
Channel positions              : Front: L C R, Side: L R, LFE
Sampling rate                  : 48.0 KHz
Bit depth                      : 16 bits
Compression mode               : Lossy
Stream size                    : 307 MiB (7%)
Language                       : Russian
Default                        : Yes
Forced                         : No
picpicpicpicpic
Для увеличения картинки щелкните мышкой по превью

Этот торрент недоступен для скачивания без регистрации, однако доступен по публичной magnet-ссылке (источники с публичных трекеров). Перед использованием ссылки прочтите, пожалуйста Пользовательское соглашение, а также как можно дольше оставайтесь на раздаче! Для того, чтобы скачать сам торрент-файл (который видит больше источников), а также для того, чтобы поблагодарить релизера, вам необходимо зарегистрироваться. Если регистрироваться лень - вы можете также попробовать скачать релиз по нашим партнерским ссылкам ниже.

[underverse.su].t55631.torrent
Трекер: Зарегистрирован   [ 03.07.2015 13:21 ]  

Статус: проверено (by makkol at 18.08.2015 15:22)
Поблагодарили: пока никто не поблагодарил...
Тип торрента: публичный - доступные источники с открытых трекеров: 
Размер: 4,18 GB (занимает 0,96 DVDR, для записи нужно 1 болванка DVDR/RW)
 
 
Похожие темы
Форум Тема Автор Торрент Отв. Посл. сооб.
Аниме Наруто: Последний фильм / The Last: Naruto the Movie (Цунэо Кобаяси) [2014 г., аниме, боевик, комедия, приключения, WEB-DLRip] Dub makkol
27 | 0

1 | 550

16

18.08.2015 15:28

Аниме HD-Video Наруто: Последний фильм / The Last: Naruto the Movie (Цунэо Кобаяси) [2014 г., аниме, боевик, комедия, приключения, WEB-DL 720p] Dub makkol
19 | 0

1 | 433

8

18.08.2015 15:18

18-Авг-2015 15:23

Топик был перенесен из форума Мультфильмы [HDDVDRip / BDRip / WEB-DL / HDTV 1080/720р] в форум Аниме HD-Video


makkol
 

Яндекс.Метрика powered by Sphinx


В Н И М А Н И Е
Сайт не распространяет и не хранит электронные версии произведений, а лишь бесплатно и без коммерческой выгоды (не требуя взамен платы,
SMS и т.д.) предоставляет доступ к создаваемому пользователями каталогу ссылок на торрент-файлы, которые содержат только списки хеш-сумм.
Убедительная просьба с жалобами обращаться напрямую к пользователю, разместившему торрент файл.

Вверх