Loading...
Error

Наруто: Последний фильм / The Last: Naruto the Movie (Цунэо Кобаяси) [2014 г., аниме, боевик, комедия, приключения, WEB-DLRip] Dub

Статистика раздачи
Размер:  1,46 GB   |    Зарегистрирован:  1 год 5 месяцев   |    Скачан:  16 раз

Полного источника не было: 5 месяцев 16 дней

Сидов:  0  |  0 KB/s  ]   Личеров:  0  |  0 KB/s  ]

* - сиды/пиры с внешних источников

   
 
Автор Сообщение

makkol Пол:Муж

03-Июл-2015 12:10

Наруто: Последний фильм / The Last: Naruto the Movie


Год выпуска: 2014
Жанр: аниме, боевик, комедия, приключения
Производство: Япония [Aniplex, Dentsu, Pierrot]
Режиссер: Цунэо Кобаяси
Роли озвучивали: Дзюнко Такэути, Нана Мидзуки, Дзюн Фукуяма, Тиэ Накамура, Сётаро Морикубо, Сатоси Хино, Акира Исида, Хидеаки Тезука, Юрика Хино, Томоми Нисимура
Сюжет фильма:
Спустя годы после событий Четвертой Мировой Войны Луна, в которую давным-давно Рикудо Сэннин запечатал Гэдо Мазо, начинает приближаться к Земле, угрожая превратиться в метеор и уничтожить все живое. В это нелегкое время таинственный человек, обладающий бьякуганом, похищает сестру Хинаты, Ханаби. И теперь уже взрослые Наруто и его друзья отправляются, чтобы спасти Ханаби и принять участие в финальной битве, которая решит судьбу всего мира!

  • Мировая премьера: 6 декабря 2014
  • Российская премьера: 4 июня 2015


Качество видео: WEB-DLRip

Продолжительность: 01:51:54
Формат: AVI
Видео: XviD, 720x384, 24.000 fps, 1475 kbps
Аудио: русский, дублированный (iTunes), AC3 5.1, 48 kHz, 384 kbps

Код:

Общее
Полное имя : The Last Naruto The Movie.WEB-DLRip.avi
Формат : AVI
Формат/Информация : Audio Video Interleave
Размер файла : 1,46 Гбайт
Продолжительность : 1 ч. 51 м.
Общий поток : 1868 Кбит/сек
Программа кодирования : VirtualDubMod 1.5.10.3 | www.virtualdub-fr.org || (build 2550/release)
Библиотека кодирования : VirtualDubMod build 2550/release

Видео
Идентификатор : 0
Формат : MPEG-4 Visual
Профиль формата : Advanced Simple@L5
Параметр BVOP формата : 2
Параметр QPel формата : Нет
Параметр GMC формата : Без точки перехода
Параметр матрицы формата : Default (MPEG)
Идентификатор кодека : XVID
Идентификатор кодека/Подсказка : XviD
Продолжительность : 1 ч. 51 м.
Битрейт : 1475 Кбит/сек
Ширина : 720 пикселей
Высота : 384 пикселя
Соотношение сторон : 1,85:1
Частота кадров : 24,000 кадра/сек
Цветовое пространство : YUV
Субдискретизация насыщенности : 4:2:0
Битовая глубина : 8 бит
Тип развёртки : Прогрессивная
Метод сжатия : С потерями
Бит/(Пиксели*Кадры) : 0.222
Размер потока : 1,15 Гбайт (79%)
Библиотека кодирования : XviD 1.2.1 (UTC 2008-12-04)

Аудио
Идентификатор : 1
Формат : AC-3
Формат/Информация : Audio Coding 3
Расширение режима : CM (complete main)
Параметр Endianness формата : Big
Идентификатор кодека : 2000
Продолжительность : 1 ч. 51 м.
Вид битрейта : Постоянный
Битрейт : 384 Кбит/сек
Каналы : 6 каналов
Расположение каналов : Front: L C R, Side: L R, LFE
Частота : 48,0 КГц
Битовая глубина : 16 бит
Метод сжатия : С потерями
Размер потока : 307 Мбайт (21%)
Выравнивание : Разделение по промежуткам
Продолжительность промежутка : 42 мс. (1,00 видеокадр)
Время предзагрузки промежутка : 500 мс.
picpicpicpicpic
Для увеличения картинки щелкните мышкой по превью

Этот торрент недоступен для скачивания без регистрации, однако доступен по публичной magnet-ссылке (источники с публичных трекеров). Перед использованием ссылки прочтите, пожалуйста Пользовательское соглашение, а также как можно дольше оставайтесь на раздаче! Для того, чтобы скачать сам торрент-файл (который видит больше источников), а также для того, чтобы поблагодарить релизера, вам необходимо зарегистрироваться. Если регистрироваться лень - вы можете также попробовать скачать релиз по нашим партнерским ссылкам ниже.

[underverse.su].t55628.torrent
Трекер: Зарегистрирован   [ 03.07.2015 12:10 ]  

Статус: проверено (by Паукан at 27.05.2016 18:04)
Поблагодарили: 1 человек
Тип торрента: публичный - доступные источники с открытых трекеров: 
Размер: 1,46 GB (занимает 0,33 DVDR, для записи нужно 1 болванка DVDR/RW)
 
 
Похожие темы
Форум Тема Автор Торрент Отв. Посл. сооб.
Аниме HD-Video Наруто: Последний фильм / The Last: Naruto the Movie (Цунэо Кобаяси) [2014 г., аниме, боевик, комедия, приключения, WEB-DL 720p] Dub makkol
19 | 0

1 | 434

8

18.08.2015 15:18

Аниме HD-Video Наруто: Последний фильм / The Last: Naruto the Movie (Цунэо Кобаяси) [2014 г., аниме, боевик, комедия, приключения, WEB-DL 1080p] Dub makkol
39 | 0

1 | 577

13

18.08.2015 15:23

18-Авг-2015 15:28

Топик был перенесен из форума Зарубежные мультфильмы в форум Аниме


Паукан
 

Яндекс.Метрика powered by Sphinx


В Н И М А Н И Е
Сайт не распространяет и не хранит электронные версии произведений, а лишь бесплатно и без коммерческой выгоды (не требуя взамен платы,
SMS и т.д.) предоставляет доступ к создаваемому пользователями каталогу ссылок на торрент-файлы, которые содержат только списки хеш-сумм.
Убедительная просьба с жалобами обращаться напрямую к пользователю, разместившему торрент файл.

Вверх