Loading...
Error

Том и Джерри: Шпион Квест / Tom and Jerry: Spy Quest (Спайк Брандт, Тони Червоне) [2015 г., мультфильм, приключения, комедия, семейный, WEB-DLRip] MVO

Статистика раздачи
Размер:  1,37 GB   |    Зарегистрирован:  1 год 5 месяцев   |    Скачан:  52 раза

Полного источника не было: 10 часов

Сидов:  0  |  0 KB/s  ]   Личеров:  0  |  0 KB/s  ]

* - сиды/пиры с внешних источников

   
 
Автор Сообщение

makkol Пол:Муж

03-Июл-2015 11:42

Том и Джерри: Шпион Квест / Tom and Jerry: Spy Quest


Год выпуска: 2015
Жанр: мультфильм, приключения, комедия, семейный
Производство: США [Warner Bros. Animation]
Режиссер: Спайк Брандт, Тони Червоне
Роли озвучивали: Риз Хартвиг, Арни Пэнтоджа, Джеймс Хонг, Эрик Боза, Мишель Д. Хенкс
Сюжет фильма:
Ещё один день на пляже для проблемной парочки, пока Том и Джерри не сталкиваются со шпионами Джонни Квестом, Хаджи и Бандитом. Когда давний враг семьи Квестов, доктор Зин, узнаёт о том, что у Бентона Квеста есть орудие решения энергетических проблем мира, он посылает армию злобных кошек украсть его и взять в плен Бентона вместе с охранником Рэйсом Бэнноном. Джонни и его новые пушистые друзья отправляются на опасные поиски отца в попытке спасти мир!

  • Мировая премьера: 9 июня 2015


Качество видео: WEB-DLRip

Продолжительность: 01:12:53
Формат: AVI
Видео: XviD, 720х400, 23.976 fps, 2291 kbps
Аудио: русский, профессиональный многоголосый закадровый (iTunes), AC3 5.1, 48 kHz, 384 kbps

Код:

Формат                                   : AVI
Формат/Информация                        : Audio Video Interleave
Размер файла                             : 1,37 Гбайт
Продолжительность                        : 1 ч. 12 м.
Общий поток                              : 2685 Кбит/сек
Название фильма                          : Tom.i.Dzherri.Shpionskie.Igry.2015.P.WEB-DLRip.1400MB.avi
Режиссёр                                 : Дракоша
Программа кодирования                    : VirtualDubMod 1.5.10.3 | www.virtualdub-fr.org || (build 2550/release)

Видео
Идентификатор                            : 0
Формат                                   : MPEG-4 Visual
Профиль формата                          : Advanced Simple@L5
Параметр BVOP формата                    : 3
Параметр QPel формата                    : Нет
Параметр GMC формата                     : Без точки перехода
Параметр матрицы формата                 : Default (H.263)
Идентификатор кодека                     : XVID
Идентификатор кодека/Подсказка           : XviD
Продолжительность                        : 1 ч. 12 м.
Битрейт                                  : 2291 Кбит/сек
Ширина                                   : 720 пикселей
Высота                                   : 400 пикселей
Соотношение сторон                       : 16:9
Частота кадров                           : 23,976 кадра/сек
Цветовое пространство                    : YUV
Субдискретизация насыщенности            : 4:2:0
Битовая глубина                          : 8 бит
Тип развёртки                            : Прогрессивная
Метод сжатия                             : С потерями
Бит/(Пиксели*Кадры)                      : 0.332
Размер потока                            : 1,17 Гбайт (85%)
Библиотека кодирования                   : XviD 73

Аудио
Идентификатор                            : 1
Формат                                   : AC-3
Формат/Информация                        : Audio Coding 3
Расширение режима                        : CM (complete main)
Параметр Endianness формата              : Big
Идентификатор кодека                     : 2000
Продолжительность                        : 1 ч. 12 м.
Вид битрейта                             : Постоянный
Битрейт                                  : 384 Кбит/сек
Каналы                                   : 6 каналов
Расположение каналов                     : Front: L C R, Side: L R, LFE
Частота                                  : 48,0 КГц
Битовая глубина                          : 16 бит
Метод сжатия                             : С потерями
Размер потока                            : 200 Мбайт (14%)
Выравнивание                             : Разделение по промежуткам
Продолжительность промежутка             : 42  мс. (1,00 видеокадр)
Время предзагрузки промежутка            : 500  мс.
picpicpicpicpic
Для увеличения картинки щелкните мышкой по превью

Этот торрент недоступен для скачивания без регистрации, однако доступен по публичной magnet-ссылке (источники с публичных трекеров). Перед использованием ссылки прочтите, пожалуйста Пользовательское соглашение, а также как можно дольше оставайтесь на раздаче! Для того, чтобы скачать сам торрент-файл (который видит больше источников), а также для того, чтобы поблагодарить релизера, вам необходимо зарегистрироваться. Если регистрироваться лень - вы можете также попробовать скачать релиз по нашим партнерским ссылкам ниже.

[underverse.su].t55626.torrent
Трекер: Зарегистрирован   [ 03.07.2015 11:42 ]  

Статус: T временная (by makkol at 19.11.2015 23:17)
Поблагодарили: 1 человек
Тип торрента: публичный - доступные источники с открытых трекеров: 
Размер: 1,37 GB (занимает 0,31 DVDR, для записи нужно 1 болванка DVDR/RW)
 
 
Похожие темы
Форум Тема Автор Торрент Отв. Посл. сооб.
Зарубежные мультфильмы Том и Джерри: Шерлок Холмс / Tom & Jerry Meet Sherlock Holmes (Джефф Сьергей) [2010 г., Комедия, приключения, семейный, мультфильм, DVDRip] maddd
1 | 0

0 | 1195

20

04.09.2010 12:05

Зарубежные мультфильмы Том и Джерри и волшебник из страны Оз / Tom and Jerry & The Wizard of Oz (Спайк Брандт ) [2011 г., мультфильм, комедия, приключения, семейный, HDRip] МУХА~
0 | 0

2 | 1121

26

28.09.2011 21:54

Зарубежные мультфильмы Том и Джерри: Робин Гуд и мышь-весельчак / Tom And Jerry: Robin Hood And His Merry Mouse (Спайк Брандт, Тони Червоне) [2012 г., мультфильм, DVDRip] Dub [лицензия] 90ytr90
2 | 4

0 | 1292

105

01.11.2012 18:31

Зарубежные мультфильмы Том и Джерри: Трепещи, Усатый! / Tom and Jerry in Shiver Me Whiskers (Скотт Джеральдс) [2006 г., Мультфильм, комедия, семейный, BDRip-AVC] Dub + Dub Чертёнок
1 | 0

0 | 657

23

26.04.2013 16:47

Зарубежные мультфильмы Том и Джерри: Гигантское приключение / Tom and Jerry's Giant Adventure (Спайк Брандт, Тони Сервоне ) [2013 г., Мультфильм, Приключения, Семейный, WEBDLRip] VO Чертёнок
2 | 0

0 | 744

62

13.07.2013 06:01

Зарубежные мультфильмы Том и Джерри: Гигантское приключение / Tom and Jerry's Giant Adventure (Спайк Брандт, Тони Червоне) [2013 г., мультфильм, комедия, семейный, BDRip] Dub + Original 90ytr90
0 | 0

0 | 1533

45

02.09.2013 06:52

Зарубежные мультфильмы Том и Джерри: Потерянный дракон / Tom & Jerry: The Lost Dragon (Тони Червоне) [2014 г., мультфильм, DVDRip] VO (Lord32x) 90ytr90
15 | 0

1 | 797

45

28.08.2014 15:22

Мультсериалы Том и Джерри. Полная коллекция / Tom And Jerry. Classic Collection (Джозеф Барбера, Уильям Ханна, Джин Дейч, Чак Джонс) [1940-1967 г., комедия, мультфильмы, DVDRip] MVO Печаль'ka
4 | 4

0 | 1365

39

07.08.2013 13:04

Зарубежное кино [HDDVDRip / BDRip / WEB-DL / HDTV 1080/720р] Том и Джерри: Гигантское приключение (Спайк Брандт, Тони Червоне) [2013 г., мультфильм, приключения, BDRip 1080p] Dub genick
0 | 0

1 | 650

0

08.09.2013 17:52

Мультфильмы [HDDVDRip / BDRip / WEB-DL / HDTV 1080/720р] Том и Джерри: Гигантское приключение / Tom and Jerry's Giant Adventure (Спайк Брандт, Тони Сервоне) [2013 г., мультфильм, приключения, семейный, BDRip 720р] DuB Чертёнок
2 | 1

0 | 1064

49

17.08.2013 19:33


Яндекс.Метрика powered by Sphinx


В Н И М А Н И Е
Сайт не распространяет и не хранит электронные версии произведений, а лишь бесплатно и без коммерческой выгоды (не требуя взамен платы,
SMS и т.д.) предоставляет доступ к создаваемому пользователями каталогу ссылок на торрент-файлы, которые содержат только списки хеш-сумм.
Убедительная просьба с жалобами обращаться напрямую к пользователю, разместившему торрент файл.

Вверх