Loading...
Error

Превосходство / Supremacy (Деон Тейлор) [2014 г., драма, HDRip] AVO

Статистика раздачи
Размер:  1,37 GB   |    Зарегистрирован:  1 год 5 месяцев   |    Скачан:  7 раз

Полного источника не было: 10 месяцев

Сидов:  0  |  0 KB/s  ]   Личеров:  0  |  0 KB/s  ]

* - сиды/пиры с внешних источников

   
 
Автор Сообщение

makkol Пол:Муж

02-Июл-2015 23:51

Превосходство / Supremacy


Год выпуска: 2014
Жанр: драма
Страна: США
Режиссер: Деон Тейлор
В ролях: Джо Андерсон, Доун Оливери, Ивэн Росс, Энсон Маунт, Дэнни Гловер, Дерек Люк, Лила Рошон, Махершала Али, Джули Бенц, Ник Чинланд
Сюжет фильма:
Фильм основан на реальных событиях. Это история о том, как расист, который только что вышел из тюрьмы, и его безжалостная подруга убивают полицейского, а затем берут семью афро-американцев в заложники.

  • Мировая премьера: 12 июня 2014


Качество видео: HDRip

Продолжительность: 01:50:07
Формат: AVI
Видео: XviD, 720x304 (2.37:1), 24.000 fps, 1384 kbps
Аудио: русский, авторский одноголосый закадровый (Михаил Яроцкий), AC3 5.1, 48 kHz, 384 kbps

Код:

Общее
Полное имя                               : Supremacy.2014.A1.HDRIp.1400MB.avi
Формат                                   : AVI
Формат/Информация                        : Audio Video Interleave
Размер файла                             : 1,37 Гбайт
Продолжительность                        : 1 ч. 50 м.
Общий поток                              : 1777 Кбит/сек
Программа кодирования                    : VirtualDubMod 1.5.10.2 (build 2540/release)
Библиотека кодирования                   : VirtualDubMod build 2540/release

Видео
Идентификатор                            : 0
Формат                                   : MPEG-4 Visual
Профиль формата                          : Advanced Simple@L5
Параметр BVOP формата                    : 2
Параметр QPel формата                    : Нет
Параметр GMC формата                     : Без точки перехода
Параметр матрицы формата                 : Default (H.263)
Идентификатор кодека                     : XVID
Идентификатор кодека/Подсказка           : XviD
Продолжительность                        : 1 ч. 50 м.
Битрейт                                  : 1384 Кбит/сек
Ширина                                   : 720 пикселей
Высота                                   : 304 пикселя
Соотношение сторон                       : 2,35:1
Частота кадров                           : 24,000 кадра/сек
Цветовое пространство                    : YUV
Субдискретизация насыщенности            : 4:2:0
Битовая глубина                          : 8 бит
Тип развёртки                            : Прогрессивная
Метод сжатия                             : С потерями
Бит/(Пиксели*Кадры)                      : 0.263
Размер потока                            : 1,06 Гбайт (78%)
Библиотека кодирования                   : XviD 1.2.1 (UTC 2008-12-04)

Аудио
Идентификатор                            : 1
Формат                                   : AC-3
Формат/Информация                        : Audio Coding 3
Расширение режима                        : CM (complete main)
Параметр Endianness формата              : Big
Идентификатор кодека                     : 2000
Продолжительность                        : 1 ч. 50 м.
Вид битрейта                             : Постоянный
Битрейт                                  : 384 Кбит/сек
Каналы                                   : 6 каналов
Расположение каналов                     : Front: L C R, Side: L R, LFE
Частота                                  : 48,0 КГц
Битовая глубина                          : 16 бит
Метод сжатия                             : С потерями
Размер потока                            : 302 Мбайт (22%)
Выравнивание                             : Разделение по промежуткам
Продолжительность промежутка             : 42  мс. (1,00 видеокадр)
Время предзагрузки промежутка            : 500  мс.
picpicpicpicpic
Для увеличения картинки щелкните мышкой по превью

Этот торрент недоступен для скачивания без регистрации, однако доступен по публичной magnet-ссылке (источники с публичных трекеров). Перед использованием ссылки прочтите, пожалуйста Пользовательское соглашение, а также как можно дольше оставайтесь на раздаче! Для того, чтобы скачать сам торрент-файл (который видит больше источников), а также для того, чтобы поблагодарить релизера, вам необходимо зарегистрироваться. Если регистрироваться лень - вы можете также попробовать скачать релиз по нашим партнерским ссылкам ниже.

[underverse.su].t55625.torrent
Трекер: Зарегистрирован   [ 02.07.2015 23:51 ]  

Статус: проверено (by матроскин at 03.07.2015 08:42)
Поблагодарили: пока никто не поблагодарил...
Тип торрента: публичный - доступные источники с открытых трекеров: 
Размер: 1,37 GB (занимает 0,31 DVDR, для записи нужно 1 болванка DVDR/RW)
 
 
Похожие темы
Форум Тема Автор Торрент Отв. Посл. сооб.
Зарубежное кино [DVDRip, Low-Res HDRip, и т.д.] Превосходство / Transcendence (Уолли Пфистер) [2014 г., фантастика, триллер, драма, детектив, WEB-DLRip] AVO [Д. Есарев] Паукан
7 | 0

1 | 2501

165

05.07.2014 21:56

Зарубежное кино [DVDRip, Low-Res HDRip, и т.д.] Превосходство / Transcendence (Уолли Пфистер / Wally Pfister) [2014 г., фантастика, триллер, драма, детектив, BDRip] Dub (не кинотеатральный) + Original (Eng) + AVO (Есарев) + Sub (Rus, Eng) 90ytr90
24 | 1

0 | 2300

154

16.07.2014 12:22

Зарубежное кино [DVDRip, Low-Res HDRip, и т.д.] Превосходство / Transcendence (Уолли Пфистер / Wally Pfister) [2014 г., фантастика, триллер, драма, детектив, BDRip] AVO (Есарев) 90ytr90
28 | 1

0 | 1213

28

21.07.2014 05:26

Зарубежное кино [DVDRip, Low-Res HDRip, и т.д.] Превосходство / Transcendence (Уолли Пфистер / Wally Pfister) [2014 г., фантастика, триллер, драма, детектив, HDRip] Dub (не кинотеатральный) 90ytr90
51 | 2

1 | 2057

141

21.09.2014 16:45

Зарубежное кино [DVDRip, Low-Res HDRip, и т.д.] Превосходство / Transcendence (Уолли Пфистер) [2014 г., Фантастика, Драма, Триллер, BDRip-AVC] Dub (RUS, С.П.Д.) + Original (ENG) + Subs (RUS, ENG) Ведьмочка
63 | 0

0 | 11478

27

21.10.2014 06:40

Зарубежное кино [DVDRip, Low-Res HDRip, и т.д.] Превосходство Борна / The Bourne Supremacy (Пол Гринграсс / Paul Greengrass) [2004 г., боевик, триллер, криминал, BDRip] Dub 90ytr90
12 | 0

0 | 340

17

31.01.2015 21:34

Зарубежное кино [DVDRip, Low-Res HDRip, и т.д.] Превосходство / Transcendence (Уолли Пфистер / Wally Pfister) [2014 г., фантастика, триллер, драма, детектив, BDRip-AVC] Dub (НТВ+) + Sub (Rus) 90ytr90
16 | 0

0 | 326

4

30.01.2016 17:38

Зарубежное кино [DVDRip, Low-Res HDRip, и т.д.] Превосходство / Transcendence (Уолли Пфистер / Wally Pfister) [2014 г., фантастика, триллер, драма, детектив, BDRip-AVC] Dub (НТВ+) + Original (Eng) + Sub (Rus, Eng) 90ytr90
38 | 5

0 | 310

8

30.01.2016 18:32

Зарубежное кино [DVDRip, Low-Res HDRip, и т.д.] Превосходство / Transcendence (Уолли Пфистер / Wally Pfister) [2014 г., фантастика, триллер, драма, детектив, BDRip] Dub (НТВ+) 90ytr90
24 | 1

0 | 764

35

31.01.2016 18:14

Зарубежное кино [HDDVDRip / BDRip / WEB-DL / HDTV 1080/720р] Превосходство / Transcendence (Уолли Пфистер / Wally Pfister) [2014 г., фантастика, триллер, драма, детектив, BDRip 720p] Dub (не кинотеатральный) + Original (Eng) + Sub (Rus, Eng) 90ytr90
1 | 0

0 | 1211

57

17.07.2014 06:33


Яндекс.Метрика powered by Sphinx


В Н И М А Н И Е
Сайт не распространяет и не хранит электронные версии произведений, а лишь бесплатно и без коммерческой выгоды (не требуя взамен платы,
SMS и т.д.) предоставляет доступ к создаваемому пользователями каталогу ссылок на торрент-файлы, которые содержат только списки хеш-сумм.
Убедительная просьба с жалобами обращаться напрямую к пользователю, разместившему торрент файл.

Вверх