Loading...
Error

Тайна четырех принцесс (Олег Штром) [2014 г., комедия, фэнтези, DVDRip]

Статистика раздачи
Размер:  1,45 GB   |    Зарегистрирован:  2 года 2 месяца   |    Скачан:  27 раз

Полного источника не было: 9 месяцев

Сидов:  0  |  0 KB/s  ]   Личеров:  0  |  0 KB/s  ]

* - сиды/пиры с внешних источников

   
 
Автор Сообщение

makkol Пол:Муж

01-Июл-2015 23:03

Тайна четырех принцесс


Год выпуска: 2014
Жанр: комедия, фэнтези
Производство: Россия , КАРО-Продакшн
Режиссер: Олег Штром
В ролях: Кристина Орбакайте, Сергей Жигунов, Александр Стриженов, Юрий Гальцев, Юлия Паршута, Дмитрий Бурукин, Андрей Федорцов, Сергей Степанченко, Сергей Дорогов, Вадим Галыгин
Сюжет фильма:
В некотором царстве, в некотором государстве жил-был весёлый и добрый портной по имени Ганс. Он был молод и не очень богат, а если точнее практически беден, и жители царства-государства звали его просто портняжка Ганс. По воле судьбы он оказывается во дворце короля, который поручает Гансу раскрыть тайну своих дочерей — молодых принцесс, которые каждую ночь куда-то исчезают. А в это время в другом царстве королева Гурунда решила женить своих принцев-сыновей на дочерях соседних сказочно богатых королей. Но беда в том, что сами сыновья уже выбрали себе невест. Отказ сыновей повиноваться вызвал у Гурунды ярость. Она в сердцах проклинает их и превращает в воронов, оставив им только несколько часов на пребывание в человеческом облике — с полночи до трех утра.

  • Российская премьера: 14 августа 2014

Релиз: Лицензия

Качество видео: DVDRip

Продолжительность: 01:26:51
Формат: AVI
Видео: XviD, 720x304, 25.000 fps, 1937 kbps
Аудио: русский, AC3 5.1, 48 kHz, 448 kbps

Код:

Общее
Полное имя                               :Tajna.chetyreh.princess.2014.DVDRip.avi
Формат                                   : AVI
Формат/Информация                        : Audio Video Interleave
Размер файла                             : 1,45 Гбайт
Продолжительность                        : 1 ч. 26 м.
Общий поток                              : 2395 Кбит/сек
Название фильма                          : Taina.Chetireh.Princess.2014.O.DVDRip.ELEKTRI4KA.uniongang.tv
Режиссёр                                 : Carl Gaus
Программа кодирования                    : VirtualDubMod 1.5.10.3 | | (build 2550/release)

Видео
Идентификатор                            : 0
Формат                                   : MPEG-4 Visual
Профиль формата                          : Advanced Simple@L5
Параметр BVOP формата                    : 3
Параметр QPel формата                    : Нет
Параметр GMC формата                     : Без точки перехода
Параметр матрицы формата                 : Выборочная
Идентификатор кодека                     : XVID
Идентификатор кодека/Подсказка           : XviD
Продолжительность                        : 1 ч. 26 м.
Битрейт                                  : 1937 Кбит/сек
Ширина                                   : 720 пикселей
Высота                                   : 304 пикселя
Соотношение сторон                       : 2,35:1
Частота кадров                           : 25,000 кадров/сек
Цветовое пространство                    : YUV
Субдискретизация насыщенности            : 4:2:0
Битовая глубина                          : 8 бит
Тип развёртки                            : Прогрессивная
Метод сжатия                             : С потерями
Бит/(Пиксели*Кадры)                      : 0.354
Размер потока                            : 1,18 Гбайт (81%)
Библиотека кодирования                   : XviD 1.2.1 (UTC 2008-12-04)

Аудио
Идентификатор                            : 1
Формат                                   : AC-3
Формат/Информация                        : Audio Coding 3
Расширение режима                        : CM (complete main)
Параметр Endianness формата              : Big
Идентификатор кодека                     : 2000
Продолжительность                        : 1 ч. 26 м.
Вид битрейта                             : Постоянный
Битрейт                                  : 448 Кбит/сек
Каналы                                   : 6 каналов
Расположение каналов                     : Front: L C R, Side: L R, LFE
Частота                                  : 48,0 КГц
Битовая глубина                          : 16 бит
Метод сжатия                             : С потерями
Размер потока                            : 278 Мбайт (19%)
Выравнивание                             : Разделение по промежуткам
Продолжительность промежутка             : 40  мс. (1,00 видеокадр)
Время предзагрузки промежутка            : 500  мс.
Релиз группы:

picpicpicpicpic
Для увеличения картинки щелкните мышкой по превью

Этот торрент недоступен для скачивания без регистрации, однако доступен по публичной magnet-ссылке (источники с публичных трекеров). Перед использованием ссылки прочтите, пожалуйста Пользовательское соглашение, а также как можно дольше оставайтесь на раздаче! Для того, чтобы скачать сам торрент-файл (который видит больше источников), а также для того, чтобы поблагодарить релизера, вам необходимо зарегистрироваться. Если регистрироваться лень - вы можете также попробовать скачать релиз по нашим партнерским ссылкам ниже.

[underverse.su].t55617.torrent
Трекер: Зарегистрирован   [ 01.07.2015 23:03 ]  

Статус: проверено (by Паукан at 02.07.2015 18:10)
Поблагодарили: пока никто не поблагодарил...
Тип торрента: публичный - доступные источники с открытых трекеров: 
Размер: 1,45 GB (занимает 1/3 DVDR, для записи нужно 1 болванка DVDR/RW)
 
 

Яндекс.Метрика powered by Sphinx


В Н И М А Н И Е
Сайт не распространяет и не хранит электронные версии произведений, а лишь бесплатно и без коммерческой выгоды (не требуя взамен платы,
SMS и т.д.) предоставляет доступ к создаваемому пользователями каталогу ссылок на торрент-файлы, которые содержат только списки хеш-сумм.
Убедительная просьба с жалобами обращаться напрямую к пользователю, разместившему торрент файл.

Вверх