Loading...
Error

Галлоуз Хилл / Gallows Hill (Виктор Гарсия) [2013 г., ужасы, триллер, детектив, HDRip] Dub (Line)

Статистика раздачи
Размер:  1,43 GB   |    Зарегистрирован:  1 год 5 месяцев   |    Скачан:  9 раз

Полного источника не было: 10 месяцев

Сидов:  0  |  0 KB/s  ]   Личеров:  0  |  0 KB/s  ]

* - сиды/пиры с внешних источников

   
 
Автор Сообщение

makkol Пол:Муж

01-Июл-2015 22:35

Галлоуз Хилл / Gallows Hill
«Heaven help us»


Год выпуска: 2013
Жанр: ужасы, триллер, детектив
Производство: США , A Bigger Boat, Bowery Hills Entertainment, Launchpad Productions, RCN Films & e-nnovva
Режиссер: Виктор Гарсия
В ролях: Питер Фачинелли, София Майлс, Наталия Рамос, Каролина Гуерра, Себастьян Мартинез, Густаво Ангарита, Хуан Пабло Гамбоа, Джульета Салазар, Татьяна Рентериа
Сюжет фильма:
Герой, вместе со своей невестой, направляется на встречу со своей дочерью от прежнего брака, чтобы восстановить с ней отношения после смерти ее матери. По дороге они попадают в автомобильную аварию и останавливаются отдохнуть в гостинице, расположенной весьма удаленно от цивилизации. Там они обнаруживают, что хозяин гостиницы держит в подвале маленькую девочку, освободив которую герои навлекают на себя большие неприятности…

  • Мировая премьера: 17 октября 2013
  • Российская премьера: 16 октября 2014


Качество видео: HDRip

Продолжительность: 01:27:00
Формат: AVI
Видео: XviD, 720x304, 23.976 fps, 1951 kbps
Аудио: русский, дублированный (чистый звук), AC3 2.0, 48 kHz, 384 kbps

Код:

Общее
Полное имя                               : Galoyz.Hill.2013.D.HDRip.1.46GB.avi
Формат                                   : AVI
Формат/Информация                        : Audio Video Interleave
Размер файла                             : 1,43 Гбайт
Продолжительность                        : 1 ч. 27 м.
Общий поток                              : 2345 Кбит/сек
Программа кодирования                    : VirtualDubMod 1.5.10.2 (build 2540/release)
Библиотека кодирования                   : VirtualDubMod build 2540/release

Видео
Идентификатор                            : 0
Формат                                   : MPEG-4 Visual
Профиль формата                          : Advanced Simple@L5
Параметр BVOP формата                    : 1
Параметр QPel формата                    : Нет
Параметр GMC формата                     : Без точки перехода
Параметр матрицы формата                 : Default (MPEG)
Идентификатор кодека                     : XVID
Идентификатор кодека/Подсказка           : XviD
Продолжительность                        : 1 ч. 27 м.
Битрейт                                  : 1951 Кбит/сек
Ширина                                   : 720 пикселей
Высота                                   : 304 пикселя
Соотношение сторон                       : 2,35:1
Частота кадров                           : 23,976 кадра/сек
Цветовое пространство                    : YUV
Субдискретизация насыщенности            : 4:2:0
Битовая глубина                          : 8 бит
Тип развёртки                            : Прогрессивная
Метод сжатия                             : С потерями
Бит/(Пиксели*Кадры)                      : 0.354
Размер потока                            : 1,13 Гбайт (79%)
Библиотека кодирования                   : XviD 1.2.1 (UTC 2008-12-04)

Аудио
Идентификатор                            : 1
Формат                                   : AC-3
Формат/Информация                        : Audio Coding 3
Расширение режима                        : CM (complete main)
Параметр Endianness формата              : Big
Идентификатор кодека                     : 2000
Продолжительность                        : 1 ч. 27 м.
Вид битрейта                             : Постоянный
Битрейт                                  : 384 Кбит/сек
Каналы                                   : 2 канала
Расположение каналов                     : Front: L R
Частота                                  : 48,0 КГц
Битовая глубина                          : 16 бит
Метод сжатия                             : С потерями
Размер потока                            : 240 Мбайт (16%)
Выравнивание                             : Разделение по промежуткам
picpicpicpicpic
Для увеличения картинки щелкните мышкой по превью

Этот торрент недоступен для скачивания без регистрации, однако доступен по публичной magnet-ссылке (источники с публичных трекеров). Перед использованием ссылки прочтите, пожалуйста Пользовательское соглашение, а также как можно дольше оставайтесь на раздаче! Для того, чтобы скачать сам торрент-файл (который видит больше источников), а также для того, чтобы поблагодарить релизера, вам необходимо зарегистрироваться. Если регистрироваться лень - вы можете также попробовать скачать релиз по нашим партнерским ссылкам ниже.

[underverse.su].t55615.torrent
Трекер: Зарегистрирован   [ 01.07.2015 22:35 ]  

Статус: T временная (by Паукан at 02.07.2015 18:10)
Поблагодарили: пока никто не поблагодарил...
Тип торрента: публичный - доступные источники с открытых трекеров: 
Размер: 1,43 GB (занимает 0,33 DVDR, для записи нужно 1 болванка DVDR/RW)
 
 
Похожие темы
Форум Тема Автор Торрент Отв. Посл. сооб.
Зарубежное кино [DVDRip, Low-Res HDRip, и т.д.] Галлоуз Хилл / Gallows Hill / The Damned (Виктор Гарсия / Victor Garcia) [2013 г., ужасы, триллер, детектив, WEB-DLRip] VO (datynet) + Original (Eng) 90ytr90
27 | 0

0 | 865

16

31.07.2014 05:03

T Зарубежное кино [HDDVDRip / BDRip / WEB-DL / HDTV 1080/720р] Галлоуз Хилл / Gallows Hill / The Damned (Виктор Гарсия) [2014 г., ужасы, триллер, детектив, WEB-DL 720p] DVO [DeadSno & den904] + VO [datynet] + Original + Sub (Eng) Паукан
23 | 3

0 | 585

8

12.08.2014 12:31

T Зарубежное кино [HDDVDRip / BDRip / WEB-DL / HDTV 1080/720р] Галлоуз Хилл / Gallows Hill (Виктор Гарсия) [2013 г., ужасы, триллер, детектив, BDRip 1080p] Dub (Line) + Original (Eng) + Subs (Eng) makkol
0 | 0

0 | 272

2

01.07.2015 22:47

T Новинки кино [CAMRip, TS, DVDScr, WP, TC] Галлоуз Хилл / Gallows Hill / The Damned (Виктор Гарсия) [2013 г., ужасы, триллер, детектив, WEB-DLRip] DVO [DeadSno & den904] + Original Паукан
4 | 0

0 | 1011

31

12.08.2014 12:26


Яндекс.Метрика powered by Sphinx


В Н И М А Н И Е
Сайт не распространяет и не хранит электронные версии произведений, а лишь бесплатно и без коммерческой выгоды (не требуя взамен платы,
SMS и т.д.) предоставляет доступ к создаваемому пользователями каталогу ссылок на торрент-файлы, которые содержат только списки хеш-сумм.
Убедительная просьба с жалобами обращаться напрямую к пользователю, разместившему торрент файл.

Вверх