Loading...
Error

Отель «Мэриголд». Заселение продолжается / The Second Best Exotic Marigold Hotel (Джон Мэдден) [2015 г., драма, комедия, HDRip] Dub (Line)

Статистика раздачи
Размер:  1,46 GB   |    Зарегистрирован:  1 год 5 месяцев   |    Скачан:  28 раз

Полного источника не было: 22 дня

Сидов:  0  |  0 KB/s  ]   Личеров:  0  |  0 KB/s  ]

* - сиды/пиры с внешних источников

   
 
Автор Сообщение

makkol Пол:Муж

30-Июн-2015 14:16

Отель «Мэриголд». Заселение продолжается / The Second Best Exotic Marigold Hotel


Год выпуска: 2015
Жанр: драма, комедия
Производство: Великобритания , США (Babieka, Blueprint Pictures)
Режиссер: Джон Мэдден
В ролях: Дев Патель, Мэгги Смит, Дэнни Махони, Ричард Гир, Селия Имри, Рональд Пикап, Дэвид Стрэтэйрн, Джуди Денч, Билл Найи, Диана Хардкэсл, Сабхраджоти Барат
Сюжет фильма:
Отель «Мэриголд» не был бы экзотическим, если бы не поселил двух незнакомых друг с другом людей в один номер; и он не стал бы лучшим, если бы из этого не произошло ничего хорошего.

  • Мировая премьера: 26 февраля 2015
  • Российская премьера: 12 марта 2015


Качество видео: HDRip

Продолжительность: 02:02:40
Формат: AVI
Видео: XviD, 720x304, 23.976 fps, 1564 kbps
Аудио: русский, дублированный (чистый звук), MP3 2.0, 48 kHz, 128 kbps

Код:

Общее
Полное имя : Otel.MeriGold.2.2015.D.HDRip.ELEKTRI4KA.avi
Формат : AVI
Формат/Информация : Audio Video Interleave
Размер файла : 1,46 Гбайт
Продолжительность : 2 ч. 2 м.
Общий поток : 1701 Кбит/сек
Программа кодирования : VirtualDubMod 1.5.10.3

Видео
Идентификатор : 0
Формат : MPEG-4 Visual
Профиль формата : Advanced Simple@L5
Параметр BVOP формата : 2
Параметр QPel формата : Нет
Параметр GMC формата : Без точки перехода
Параметр матрицы формата : Default (MPEG)
Режим смешивания : Сжатый битовый поток
Идентификатор кодека : XVID
Идентификатор кодека/Подсказка : XviD
Продолжительность : 2 ч. 2 м.
Битрейт : 1564 Кбит/сек
Ширина : 720 пикселей
Высота : 304 пикселя
Соотношение сторон : 2,35:1
Частота кадров : 23,976 кадра/сек
Цветовое пространство : YUV
Субдискретизация насыщенности : 4:2:0
Битовая глубина : 8 бит
Тип развёртки : Прогрессивная
Метод сжатия : С потерями
Бит/(Пиксели*Кадры) : 0.298
Размер потока : 1,34 Гбайт (92%)
Библиотека кодирования : XviD 1.2.1 (UTC 2008-12-04)

Аудио
Идентификатор : 1
Формат : MPEG Audio
Версия формата : Version 1
Профиль формата : Layer 3
Режим : Joint stereo
Расширение режима : MS Stereo
Идентификатор кодека : 55
Идентификатор кодека/Подсказка : MP3
Продолжительность : 2 ч. 2 м.
Вид битрейта : Постоянный
Битрейт : 128 Кбит/сек
Каналы : 2 канала
Частота : 48,0 КГц
Метод сжатия : С потерями
Размер потока : 112 Мбайт (8%)
Выравнивание : Соединение по промежуткам
Продолжительность промежутка : 42 мс. (1,00 видеокадр)
Время предзагрузки промежутка : 504 мс.
Библиотека кодирования : LAME3.99r
Сэмпл

Релиз группы:

picpicpicpicpic
Для увеличения картинки щелкните мышкой по превью

Этот торрент недоступен для скачивания без регистрации, однако доступен по публичной magnet-ссылке (источники с публичных трекеров). Перед использованием ссылки прочтите, пожалуйста Пользовательское соглашение, а также как можно дольше оставайтесь на раздаче! Для того, чтобы скачать сам торрент-файл (который видит больше источников), а также для того, чтобы поблагодарить релизера, вам необходимо зарегистрироваться. Если регистрироваться лень - вы можете также попробовать скачать релиз по нашим партнерским ссылкам ниже.

[underverse.su].t55572.torrent
Трекер: Зарегистрирован   [ 30.06.2015 14:16 ]  

Статус: T временная (by Паукан at 01.07.2015 14:41)
Поблагодарили: пока никто не поблагодарил...
Тип торрента: публичный - доступные источники с открытых трекеров: 
Размер: 1,46 GB (занимает 1/3 DVDR, для записи нужно 1 болванка DVDR/RW)
 
 
Похожие темы
Форум Тема Автор Торрент Отв. Посл. сооб.
Зарубежное кино [DVDRip, Low-Res HDRip, и т.д.] Отель «Мэриголд»: Лучший из экзотических / The Best Exotic Marigold Hotel (Джон Мэдден) [2011 г., драма, комедия, HDRip] RG NewCinema
5 | 0

0 | 739

19

21.06.2012 00:32

Зарубежное кино [DVDRip, Low-Res HDRip, и т.д.] Отель «Мэриголд»: Лучший из экзотических / The Best Exotic Marigold Hotel (Джон Мэдден / John Madden) [2011 г., драма, комедия, HDRip] Dub 90ytr90
89 | 0

0 | 244

9

09.02.2015 10:12

T Зарубежное кино [DVDRip, Low-Res HDRip, и т.д.] Отель «Мэриголд». Заселение продолжается / The Second Best Exotic Marigold Hotel (Джон Мэдден) [2015 г., драма, комедия, HDRip] Dub (Звук с TS) makkol
30 | 0

0 | 543

16

23.06.2015 23:47

Зарубежное кино [HDDVDRip / BDRip / WEB-DL / HDTV 1080/720р] Отель «Мэриголд»: Лучший из экзотических / The Best Exotic Marigold Hotel (Джон Мэдден / John Madden) [2011 г., драма, комедия, BDRip 1080p] Dub + Original (Eng) + Sub (Rus, Eng) 90ytr90
52 | 4

0 | 247

2

09.02.2015 09:59

Зарубежное кино [HDDVDRip / BDRip / WEB-DL / HDTV 1080/720р] Отель «Мэриголд»: Лучший из экзотических / The Best Exotic Marigold Hotel (Джон Мэдден / John Madden) [2011 г., драма, комедия, BDRip 720p] Dub + Original (Eng) + Subs 90ytr90
18 | 0

0 | 305

4

09.02.2015 10:30

T Зарубежное кино [HDDVDRip / BDRip / WEB-DL / HDTV 1080/720р] Отель «Мэриголд». Заселение продолжается / The Second Best Exotic Marigold Hotel (Джон Мэдден) [2015 г., драма, комедия, BDRip 1080p] Dub (Звук с TS) + Original makkol
10 | 1

0 | 486

6

23.06.2015 23:59

T Зарубежное кино [HDDVDRip / BDRip / WEB-DL / HDTV 1080/720р] Отель «Мэриголд». Заселение продолжается / The Second Best Exotic Marigold Hotel (Джон Мэдден) [2015 г., драма, комедия, BDRip 1080p] Dub (Line) + Original (Eng) + Subs (Eng) makkol
1 | 0

0 | 320

3

30.06.2015 14:35


Яндекс.Метрика powered by Sphinx


В Н И М А Н И Е
Сайт не распространяет и не хранит электронные версии произведений, а лишь бесплатно и без коммерческой выгоды (не требуя взамен платы,
SMS и т.д.) предоставляет доступ к создаваемому пользователями каталогу ссылок на торрент-файлы, которые содержат только списки хеш-сумм.
Убедительная просьба с жалобами обращаться напрямую к пользователю, разместившему торрент файл.

Вверх