Loading...
Error

Цимбелин / Cymbeline (Майкл Алмерейда) [2014 г., драма, HDRip] Dub

Статистика раздачи
Размер:  1,46 GB   |    Зарегистрирован:  1 год 5 месяцев   |    Скачан:  7 раз

Полного источника не было: 7 месяцев

Сидов:  0  |  0 KB/s  ]   Личеров:  0  |  0 KB/s  ]

* - сиды/пиры с внешних источников

   
 
Автор Сообщение

makkol Пол:Муж

29-Июн-2015 23:24

Цимбелин / Cymbeline
«Короли, королевы, байкеры, война»


Год выпуска: 2014
Жанр: драма
Производство: США, Benaroya Pictures, Keep Your Head Productions
Режиссер: Майкл Алмерейда
В ролях: Итан Хоук, Эд Харрис, Милла Йовович, Дакота Джонсон, Антон Ельчин, Пенн Бэджли, Джон Легуизамо, Питер Герети, Кевин Корригэн, Вонди Куртис-Холл
Сюжет фильма:
Современный пересказ одноименной трагедии Уильяма Шекспира. Действие перенесено в наши дни. Цимбелин, лидер байкеров-наркоторговцев, объявляет войну местным продажным полицейским. Его дочери, Имогене и ее возлюбленному Постуму приходится самим сражаться за свою любовь.

  • Мировая премьера: 3 сентября 2014
  • Российская премьера: 5 марта 2015


Релиз: Лицензия

Качество видео: HDRip

Продолжительность: 01:38:30
Формат: AVI
Видео: XviD, 720x384 (1.85:1), 23.976 fps, 1659 kbps
Аудио: русский, дублированный, AC3 5.1, 48 kHz, 448 kbps

Код:

General
Complete name                            : Cymbeline.2014.D.HDRip.avi
Format                                   : AVI
Format/Info                              : Audio Video Interleave
File size                                : 1.46 GiB
Duration                                 : 1h 38mn
Overall bit rate                         : 2 116 Kbps
Writing application                      : VirtualDubMod 1.5.10.3 | (build 2550/release)

Video
ID                                       : 0
Format                                   : MPEG-4 Visual
Format profile                           : Advanced Simple@L5
Format settings, BVOP                    : 2
Format settings, QPel                    : No
Format settings, GMC                     : No warppoints
Format settings, Matrix                  : Default (MPEG)
Muxing mode                              : Packed bitstream
Codec ID                                 : XVID
Codec ID/Hint                            : XviD
Duration                                 : 1h 38mn
Bit rate                                 : 1 659 Kbps
Width                                    : 720 pixels
Height                                   : 384 pixels
Display aspect ratio                     : 1.85:1
Frame rate                               : 23.976 fps
Color space                              : YUV
Chroma subsampling                       : 4:2:0
Bit depth                                : 8 bits
Scan type                                : Progressive
Compression mode                         : Lossy
Bits/(Pixel*Frame)                       : 0.250
Stream size                              : 1.14 GiB (78%)
Writing library                          : XviD 1.2.1 (UTC 2008-12-04)

Audio
ID                                       : 1
Format                                   : AC-3
Format/Info                              : Audio Coding 3
Mode extension                           : CM (complete main)
Format settings, Endianness              : Big
Codec ID                                 : 2000
Duration                                 : 1h 38mn
Bit rate mode                            : Constant
Bit rate                                 : 448 Kbps
Channel count                            : 6 channels
Channel positions                        : Front: L C R, Side: L R, LFE
Sampling rate                            : 48.0 KHz
Bit depth                                : 16 bits
Compression mode                         : Lossy
Stream size                              : 316 MiB (21%)
Alignment                                : Split accross interleaves
Interleave, duration                     : 42 ms (1.00 video frame)
Interleave, preload duration             : 500 ms
Сэмпл

picpicpicpicpic
Для увеличения картинки щелкните мышкой по превью

Этот торрент недоступен для скачивания без регистрации, однако доступен по публичной magnet-ссылке (источники с публичных трекеров). Перед использованием ссылки прочтите, пожалуйста Пользовательское соглашение, а также как можно дольше оставайтесь на раздаче! Для того, чтобы скачать сам торрент-файл (который видит больше источников), а также для того, чтобы поблагодарить релизера, вам необходимо зарегистрироваться. Если регистрироваться лень - вы можете также попробовать скачать релиз по нашим партнерским ссылкам ниже.

[underverse.su].t55567.torrent
Трекер: Зарегистрирован   [ 29.06.2015 23:24 ]  

Статус: проверено (by матроскин at 01.07.2015 11:16)
Поблагодарили: 1 человек
Тип торрента: публичный - доступные источники с открытых трекеров: 
Размер: 1,46 GB (занимает 1/3 DVDR, для записи нужно 1 болванка DVDR/RW)
 
 
Похожие темы
Форум Тема Автор Торрент Отв. Посл. сооб.
Зарубежное кино [DVDRip, Low-Res HDRip, и т.д.] Цимбелин / Cymbeline (Майкл Алмерейда) [2014 г., Драма, WEB-DLRip] MVO Су-34
0 | 0

0 | 610

13

22.03.2015 20:21

Зарубежное кино [DVDRip, Low-Res HDRip, и т.д.] Цимбелин / Cymbeline (Майкл Алмерейда) [2014 г., Драма, HDRip] DVO (RUS, Студия Пиратского Дубляжа) Ведьмочка
11 | 2

0 | 485

18

07.05.2015 01:03

T Зарубежное кино [DVDRip, Low-Res HDRip, и т.д.] Цимбелин / Cymbeline (Майкл Алмерейда) [2014 г., драма, HDRip] Dub [Чистый звук] Паукан
0 | 0

0 | 348

9

20.05.2015 14:17

Зарубежное кино [HDDVDRip / BDRip / WEB-DL / HDTV 1080/720р] Цимбелин / Cymbeline (Майкл Алмерейда) [2014 г., Драма, BDRip 720p] DVO (RUS, Студия Пиратского Дубляжа) + Original (ENG) Ведьмочка
13 | 0

0 | 398

10

07.05.2015 00:53


Яндекс.Метрика powered by Sphinx


В Н И М А Н И Е
Сайт не распространяет и не хранит электронные версии произведений, а лишь бесплатно и без коммерческой выгоды (не требуя взамен платы,
SMS и т.д.) предоставляет доступ к создаваемому пользователями каталогу ссылок на торрент-файлы, которые содержат только списки хеш-сумм.
Убедительная просьба с жалобами обращаться напрямую к пользователю, разместившему торрент файл.

Вверх