Loading...
Error

Ланестер / Lanester (Франк Манкузо) [2013 г., детектив, триллер, экранизация, HDTVRip] MVO

Статистика раздачи
Размер:  1,37 GB   |    Зарегистрирован:  1 год 5 месяцев   |    Скачан:  7 раз

Полного источника не было: 29 дней

Сидов:  0  |  0 KB/s  ]   Личеров:  0  |  0 KB/s  ]

* - сиды/пиры с внешних источников

   
 
Автор Сообщение

makkol Пол:Муж

29-Июн-2015 22:27

Ланестер / Lanester


Год выпуска: 2013
Жанр: детектив, триллер, экранизация
Производство: Франция, Native
Режиссер: Франк Манкузо
В ролях: Ришар Берри, Эмма де Кон, Ипполит Жирардо, Брюно Саломон, Ники Марбо, Изабель Канделье
Сюжет фильма:
В западном Париже совершены три убийства по загадочному сценарию, когда каждая из жертв была подвергнута энуклеации. Ведущий эти дела капитан полиции Эрик Ланестер теряет зрение, тем не менее, продолжает расследование, способное воскресить демонов, которые, как он считал, были давным-давно похоронены…

  • Мировая премьера: 14 сентября 2013


Качество видео: HDTVRip

Продолжительность: 01:37:27
Формат: AVI
Видео: XviD, 720x400, 25.000 fps1807 kbps
Аудио: русский, профессиональный многоголосый закадровый, AC3 2.0, 48 kHz, 192 kbps

Код:

Ланестер - Lanester [by Edich2].avi
Format : AVI
Format/Info : Audio Video Interleave
File size : 1.37 GiB
Duration : 1h 37mn
Overall bit rate : 2 009 Kbps
Movie name : Ланестер - Lanester [by Edich2]
Director : by Edich2

Video
ID : 0
Format : MPEG-4 Visual
Format profile : Advanced Simple@L5
Format settings, BVOP : 1
Format settings, QPel : No
Format settings, GMC : No warppoints
Format settings, Matrix : Default (MPEG)
Codec ID : XVID
Codec ID/Hint : XviD
Duration : 1h 37mn
Bit rate : 1 808 Kbps
Width : 720 pixels
Height : 400 pixels
Display aspect ratio : 16:9
Frame rate : 25.000 fps
Color space : YUV
Chroma subsampling : 4:2:0
Bit depth : 8 bits
Scan type : Progressive
Compression mode : Lossy
Bits/(Pixel*Frame) : 0.251
Stream size : 1.23 GiB (90%)
Writing library : XviD 1.2.1 (UTC 2008-12-04)

Audio
ID : 1
Format : AC-3
Format/Info : Audio Coding 3
Mode extension : CM (complete main)
Format settings, Endianness : Big
Codec ID : 2000
Duration : 1h 37mn
Bit rate mode : Constant
Bit rate : 192 Kbps
Channel(s) : 2 channels
Channel positions : Front: L R
Sampling rate : 48.0 KHz
Bit depth : 16 bits
Compression mode : Lossy
Stream size : 134 MiB (10%)
Alignment : Split accross interleaves
Interleave, duration : 40 ms (1.00 video frame)
Interleave, preload duration : 500 ms
Сэмпл

picpicpicpicpic
Для увеличения картинки щелкните мышкой по превью

Этот торрент недоступен для скачивания без регистрации, однако доступен по публичной magnet-ссылке (источники с публичных трекеров). Перед использованием ссылки прочтите, пожалуйста Пользовательское соглашение, а также как можно дольше оставайтесь на раздаче! Для того, чтобы скачать сам торрент-файл (который видит больше источников), а также для того, чтобы поблагодарить релизера, вам необходимо зарегистрироваться. Если регистрироваться лень - вы можете также попробовать скачать релиз по нашим партнерским ссылкам ниже.

[underverse.su].t55564.torrent
Трекер: Зарегистрирован   [ 29.06.2015 22:27 ]  

Статус: проверено (by Паукан at 01.07.2015 14:42)
Поблагодарили: пока никто не поблагодарил...
Тип торрента: публичный - доступные источники с открытых трекеров: 
Размер: 1,37 GB (занимает 0,31 DVDR, для записи нужно 1 болванка DVDR/RW)
 
 

Яндекс.Метрика powered by Sphinx


В Н И М А Н И Е
Сайт не распространяет и не хранит электронные версии произведений, а лишь бесплатно и без коммерческой выгоды (не требуя взамен платы,
SMS и т.д.) предоставляет доступ к создаваемому пользователями каталогу ссылок на торрент-файлы, которые содержат только списки хеш-сумм.
Убедительная просьба с жалобами обращаться напрямую к пользователю, разместившему торрент файл.

Вверх