Loading...
Error

Единичка (Кирилл Белевич) [2015 г., военный, драма, DVDRip]

Статистика раздачи
Размер:  2,43 GB   |    Зарегистрирован:  1 год 5 месяцев   |    Скачан:  22 раза

Полного источника не было: 6 дней

Сидов:  0  |  0 KB/s  ]   Личеров:  0  |  0 KB/s  ]

* - сиды/пиры с внешних источников

   
 
Автор Сообщение

nemos Пол:Муж

29-Июн-2015 10:45

Единичка


Год выпуска: 11 июня 2015
Жанр: военный, драма
Страна: Россия
Режиссер: Кирилл Белевич
В ролях: Андрей Мерзликин, Илья Коробко, Анна Прус, Арина Борисова, Александр Вершинин, Михаил Евланов, Микаэл Джанибекян, Сергей Габриэлян, Добрыня Белевич-Оболенский, Якуб Здруйковский
Сюжет фильма:
Август 1944-го. Советские войска продолжают наступление в Восточной Польше. Подразделение старшего лейтенанта Егорова получает задание — удержать мост, через который планируется переправа частей Советской Армии. Прибыв на позицию, бойцы обнаруживают разрушенный монастырь, а в нем — группу глухих сирот с воспитательницей Евой. Утратив веру, она нашла смысл жизни в спасении немощных и беззащитных детей. Лейтенант Егоров оказывается перед сложным выбором — выполняя приказ командования, он будет вынужден поставить под угрозу жизнь маленьких поляков. Артиллеристы изо всех сил стараются не допустить смерти детей.


Качество видео: DVDRip

Продолжительность: 01:44:55
Формат: MKV
Видео: MPEG-4 AVC, 1024x428, 2 804 kbps
Аудио: русский, AC-3, 48.0 KHz, 6 ch, 448 Kbps

Код:

General

Unique ID : 295242858664482829771814151357364781544 (0xDE1DB4CBF009E1A64C269E8D016D41E8)

Название : F:Единичка(2015).DVDRIP_AVC.[-=DoMiNo=-].mkv

Формат : Matroska

Формат version : Version 4 / Version 2

Размер файла : 2.43 GiB

Длительность : 1h 44mn

Общий Битрейт : 3 318 Kbps

Movie name : Единичка

Создано приложением : XviD4PSP 7.0.148

Writing library : Lavf56.25.101

DATE : 2015

GENRE : военный, драма

ENCODING_INFO : DVD > MKV / MPEG2 > X264 CRF 18,0 Custom / AC3 > COPY

DEION : Август 1944-го. Советские войска продолжают наступление в Восточной Польше. Подразделение старшего лейтенанта Егорова получает задание — удержать мост, через который планируется переправа частей Советской Армии. Прибыв на позицию, бойцы обнаруживают разрушенный монастырь, а в нем — группу глухих сирот с воспитательницей Евой. Утратив веру, она нашла смысл жизни в спасении немощных и беззащитных детей. Лейтенант Егоров оказывается перед сложным выбором — выполняя приказ командования, он будет вынужден поставить под угрозу жизнь маленьких поляков. Артиллеристы изо всех сил стараются не допустить смерти детей…

SYNOPSIS : Август 1944-го. Советские войска продолжают наступление в Восточной Польше. Подразделение старшего лейтенанта Егорова получает задание — удержать мост, через который планируется переправа частей Советской Армии. Прибыв на позицию, бойцы обнаруживают разрушенный монастырь, а в нем — группу глухих сирот с воспитательницей Евой. Утратив веру, она нашла смысл жизни в спасении немощных и беззащитных детей. Лейтенант Егоров оказывается перед сложным выбором — выполняя приказ командования, он будет вынужден поставить под угрозу жизнь маленьких поляков. Артиллеристы изо всех сил стараются не допустить смерти детей…

ITUNEXTC : ru-movie|12+|200|

ACTORS : Андрей Мерзликин, Илья Коробко, Анна Прус, Арина Борисова, Александр Вершинин, Михаил Евланов, Микаэл Джанибекян, Сергей Габриэлян, Добрыня Белевич-Оболенский, Якуб Здруйковский, показать всех

DIRECTOR : Кирилл Белевич

PRODUCER : Рубен Дишдишян, Елена Денисевич, Дмитрий Голубничий

WRITER : Сергей Калужанов, Александр Николаев, Анатолий Усов

COUNTRY : Россия

RATING : 7.032

Язык : und

FILENAME : cover.png

Attachements : cover.png

Video

ID : 1

Формат : AVC

Формат/Info : Advanced Video Кодек

Формат profile : High@L4.1

Формат настройки, CABAC : Yes

Формат настройки, ReFrames : 12 frames

Кодек ID : V_MPEG4/ISO/AVC

Длительность : 1h 44mn

Битрейт : 2 804 Kbps

Width : 1 024 пикселей

Высота : 428 пикселей

Соотношение кадра : 2.40:1

Частота кадров mode : Constant

Частота кадров : 25.000 fps

Цветопередача : YUV

Chroma subsampling : 4:2:0

Разрядность : 8 bits

Тип сканирования : Progressive

Bits/(Pixel*Frame) : 0.256

Размер потока : 2.06 GiB (85%)

Writing library : x264 core 146 r2538M 121396c

Encoding настройки : cabac=1 / ref=12 / deblock=1:-3:-3 / analyse=0x3:0x133 / me=umh / subme=10 / psy=1 / psy_rd=1,00:0,10 / mixed_ref=1 / me_range=32 / chroma_me=1 / trellis=2 / 8x8dct=1 / cqm=0 / deadzone=21,11 / fast_pskip=0 / chroma_qp_offset=-3 / threads=12 / lookahead_threads=3 / sliced_threads=0 / nr=0 / decimate=1 / interlaced=0 / bluray_compat=0 / constrained_intra=0 / bframes=11 / b_pyramid=2 / b_adapt=2 / b_bias=0 / direct=1 / weightb=1 / open_gop=0 / weightp=2 / keyint=250 / keyint_min=25 / scenecut=40 / intra_refresh=0 / rc=crf / mbtree=0 / crf=18,0 / qcomp=0,60 / qpmin=10 / qpmax=69 / qpstep=4 / ip_ratio=1,40 / pb_ratio=1,30 / aq=1:1,00

Default : Yes

Forced : No

Audio

ID : 2

Формат : AC-3

Формат/Info : Audio Coding 3

Расширение режима : CM (complete main)

Формат настройки, Endianness : Big

Кодек ID : A_AC3

Длительность : 1h 44mn

Битрейт mode : Constant

Битрейт : 448 Kbps

Каналы(s) : 6 каналов

Каналы positions : Front: L C R, Side: L R, LFE

Частота : 48.0 KHz

Разрядность : 32 bits

Режим сжатия : Lossy

Размер потока : 336 MiB (14%)

Язык : Russian

Default : Yes

Forced : No

Menu

00:00:00.000 : :Chapter 1

00:07:36.264 : :Chapter 2

00:16:36.745 : :Chapter 3

00:28:33.305 : :Chapter 4

00:37:31.685 : :Chapter 5

00:47:00.022 : :Chapter 6

00:55:09.415 : :Chapter 7

01:04:44.776 : :Chapter 8

01:13:52.371 : :Chapter 9

01:20:49.724 : :Chapter 10

01:27:15.079 : :Chapter 11

01:38:10.644 : :Chapter 12

01:44:55.120 : :Chapter 13
picpicpic
Для увеличения картинки щелкните мышкой по превью

Этот торрент недоступен для скачивания без регистрации, однако доступен по публичной magnet-ссылке (источники с публичных трекеров). Перед использованием ссылки прочтите, пожалуйста Пользовательское соглашение, а также как можно дольше оставайтесь на раздаче! Для того, чтобы скачать сам торрент-файл (который видит больше источников), а также для того, чтобы поблагодарить релизера, вам необходимо зарегистрироваться. Если регистрироваться лень - вы можете также попробовать скачать релиз по нашим партнерским ссылкам ниже.

[underverse.su].t55559.torrent
Трекер: Зарегистрирован   [ 29.06.2015 10:45 ]  

Статус: проверено (by nemos at 29.06.2015 10:46)
Поблагодарили: 2 человека
Тип торрента: публичный - доступные источники с открытых трекеров: 
Размер: 2,43 GB (занимает 0,56 DVDR, для записи нужно 1 болванка DVDR/RW)
 
 
Похожие темы
Форум Тема Автор Торрент Отв. Посл. сооб.
Наше кино [DVDRip, Low-Res HDRip, и т.д.] Единичка (Кирилл Белевич) [2015 г., военный, драма, DVDRip] makkol
400 | 6

0 | 594

65

28.06.2015 11:02

Наше кино [HDDVDRip / BDRip / WEB-DL / HDTV 1080/720р] Единичка (Кирилл Белевич) [2015 г., военный, драма, WEB-DL 1080p] makkol
79 | 1

1 | 744

50

12.07.2015 11:37


Яндекс.Метрика powered by Sphinx


В Н И М А Н И Е
Сайт не распространяет и не хранит электронные версии произведений, а лишь бесплатно и без коммерческой выгоды (не требуя взамен платы,
SMS и т.д.) предоставляет доступ к создаваемому пользователями каталогу ссылок на торрент-файлы, которые содержат только списки хеш-сумм.
Убедительная просьба с жалобами обращаться напрямую к пользователю, разместившему торрент файл.

Вверх