Loading...
Error

Слепые вожди слепых [2015 г., документальный, HDTVRip]

Статистика раздачи
Размер:  683 MB   |    Зарегистрирован:  1 год 5 месяцев   |    Скачан:  3 раза
Сидов:  1  |  0 KB/s  ]   Личеров:  0  |  0 KB/s  ]

* - сиды/пиры с внешних источников

   
 
Автор Сообщение

матроскин Пол:Муж

28-Июн-2015 22:03

Слепые вожди слепых


Год выпуска: 2015
Жанр: документальный
Страна: Россия
Выпущено: Красное Тв
Сюжет фильма:
Настало другое время и началось переписывание истории. Режиссер Никита Михалков решил переписать историю в своем фильме "Солнечный удар", а ранее в фильме" Раба любви" у Михалкова была другая позиция правды, а теперь появилась позиция лжи.
Гитлер откровенно заявлял, что советское мировоззрение - есть угроза Европе, и если ему удастся идейно кастрировать русских, уничтожив большевизм, то собственно население СССР никакой угрозы для запада, от имени которого Гитлер имел наглость вещать, русские представлять не будут. Их можно будет легко обратить в рабов и поддерживать в нужной степени отсталости. Талантливых рабов он предлагал выявлять давать настоящее образование и онемечивать, чтобы искоренить даже гипотетическую возможность появления лидера восстания. Что касается остального народа, то их никто не собирался заставлять работать из-под палки. Фюрер был настоящим свободолюбивцем и говорил, что тот, кто желает ничего не делать - пускай делает это самое "ничего" и подыхает.
Качество видео: HDTVRip

Продолжительность: 00:30:40
Формат: avi
Видео: DivX 4, 854x480, 2844 kbps
Аудио: русский, оригинал, MP3 2.0, 256 kbps

Код:

General
Complete name                    : C:\Users\Ohrana\Desktop\Слепые вожди слепых.avi
Format                           : AVI
Format/Info                      : Audio Video Interleave
File size                        : 683 MiB
Duration                         : 30mn 40s
Overall bit rate                 : 3 113 Kbps
Writing application              : Lavf52.93.0

Video
ID                               : 0
Format                           : MPEG-4 Visual
Format profile                   : Simple@L1
Format settings, BVOP            : No
Format settings, QPel            : No
Format settings, GMC             : No warppoints
Format settings, Matrix          : Default (H.263)
Codec ID                         : DIVX
Codec ID/Info                    : Project Mayo
Codec ID/Hint                    : DivX 4
Duration                         : 30mn 40s
Bit rate                         : 2 844 Kbps
Width                            : 854 pixels
Height                           : 480 pixels
Display aspect ratio             : 16/9
Frame rate                       : 25.000 fps
Resolution                       : 24 bits
Colorimetry                      : 4:2:0
Scan type                        : Progressive
Bits/(Pixel*Frame)               : 0.278
Stream size                      : 624 MiB (91%)
Writing library                  : Lavc52.108.0

Audio
ID                               : 1
Format                           : MPEG Audio
Format version                   : Version 1
Format profile                   : Layer 3
Codec ID                         : 55
Codec ID/Hint                    : MP3
Duration                         : 30mn 40s
Bit rate mode                    : Constant
Bit rate                         : 256 Kbps
Channel(s)                       : 2 channels
Sampling rate                    : 44.1 KHz
Resolution                       : 16 bits
Stream size                      : 56.2 MiB (8%)
Alignment                        : Aligned on interleaves
Interleave, duration             : 26 ms (0.65 video frame)
Interleave, preload duration     : 52 ms
Writing library                  : LAME3.98.4

picpicpicpicpicpic
Для увеличения картинки щелкните мышкой по превью

Этот торрент недоступен для скачивания без регистрации, однако доступен по публичной magnet-ссылке (источники с публичных трекеров). Перед использованием ссылки прочтите, пожалуйста Пользовательское соглашение, а также как можно дольше оставайтесь на раздаче! Для того, чтобы скачать сам торрент-файл (который видит больше источников), а также для того, чтобы поблагодарить релизера, вам необходимо зарегистрироваться. Если регистрироваться лень - вы можете также попробовать скачать релиз по нашим партнерским ссылкам ниже.

[underverse.su].t55558.torrent
Трекер: Зарегистрирован   [ 28.06.2015 22:03 ]  

Статус: проверено (by матроскин at 28.06.2015 22:04)
Поблагодарили: 3 человека
Тип торрента: публичный - доступные источники с открытых трекеров: 
Размер: 683 MB (занимает 0,15 DVDR, для записи нужно 1 болванка DVDR/RW)
 
 

матроскин Пол:Муж

28-Июн-2015 22:07

Качайте и смотрите документальные фильмы!

.


матроскин Пол:Муж

28-Июн-2015 22:17


Яндекс.Метрика powered by Sphinx


В Н И М А Н И Е
Сайт не распространяет и не хранит электронные версии произведений, а лишь бесплатно и без коммерческой выгоды (не требуя взамен платы,
SMS и т.д.) предоставляет доступ к создаваемому пользователями каталогу ссылок на торрент-файлы, которые содержат только списки хеш-сумм.
Убедительная просьба с жалобами обращаться напрямую к пользователю, разместившему торрент файл.

Вверх