Loading...
Error

Неизвестная девушка / Проси меня о чём угодно / Ask Me Anything (Эллисон Бернетт) [2014 г., драма, WEB-DLRip] VO

Статистика раздачи
Размер:  1,17 GB   |    Зарегистрирован:  1 год 5 месяцев   |    Скачан:  17 раз

Полного источника не было: 4 часа

Сидов:  0  |  0 KB/s  ]   Личеров:  0  |  0 KB/s  ]

* - сиды/пиры с внешних источников

   
 
Автор Сообщение

makkol Пол:Муж

28-Июн-2015 13:43

Неизвестная девушка / Проси меня о чём угодно / Ask Me Anything


Год выпуска: 2014
Жанр: драма
Производство: США, Decipher Entertainment,LA Publicity,Presque Isle Films,Tait Productions,Undiscovered Gyrl
Режиссер: Эллисон Бернетт
В ролях: Бритт Робертсон, Джастин Лонг, Кристиан Слэйтер, Роберт Патрик, Мартин Шин, Молли Хэйгэн, Зулейха Робинсон, Кимберли Уильямс, Макс Карвер, Джиа Мантенья, Шэрон Оми, Макс Хоффман, Беатрис Розен, Кэтрин де Прюм, Лоррэйн Туссэйнт
Сюжет фильма:
Кэти Кэмпенфелт берет годичные каникулы перед тем как поступить в колледж. Для мамы и учителей она мотивирует свой поступок тем, что пока не готова сделать выбор дальнейшего жизненного пути. Взрослые дают согласие, но при условии, что она найдет себе работу, чтобы не бездельничать и станет вести блог, чтобы развивать свою речь и погрузиться в самоанализ. В блоге, который Кэти решает сделать анонимным, девушка изливает его читателям все свои самые сокровенные тайны и чувства, включая подробности интимных отношений сразу с несколькими мужчинами разного возраста...

  • Мировая премьера: 19 апреля 2014


Качество видео: WEB-DLRip

Продолжительность: 01:38:41
Формат: AVI
Видео: XviD, 720x400 (16:9), 23.976 fps, 1562 kbps
Аудио: русский, любительский одноголосый закадровый (Алексей Толмачев), MP3 2.0, 48 kHz, 128 kbps

Код:

Общее
Полное имя                               : Ask Me Anything (2014) rus.avi
Формат                                   : AVI
Формат/Информация                        : Audio Video Interleave
Размер файла                             : 1,17 Гбайт
Продолжительность                        : 1 ч. 38 м.
Общий поток                              : 1700 Кбит/сек
Название фильма                          : RARBG.COM - Ask.Me.Anything.2014.WEB-DL.XviD.MP3-RARBG
Программа кодирования                    : VirtualDubMod 1.5.10.2 (build 2540/release)
Библиотека кодирования                   : VirtualDubMod build 2540/release
Примечание                               : RARBG.COM - Ask.Me.Anything.2014.WEB-DL.XviD.MP3-RARBG

Видео
Идентификатор                            : 0
Формат                                   : MPEG-4 Visual
Профиль формата                          : Simple@L5
Параметр BVOP формата                    : Нет
Параметр QPel формата                    : Нет
Параметр GMC формата                     : Без точки перехода
Параметр матрицы формата                 : Default (H.263)
Идентификатор кодека                     : XVID
Идентификатор кодека/Подсказка           : XviD
Продолжительность                        : 1 ч. 38 м.
Битрейт                                  : 1562 Кбит/сек
Ширина                                   : 720 пикселей
Высота                                   : 400 пикселей
Соотношение сторон                       : 16:9
Частота кадров                           : 23,976 кадра/сек
Цветовое пространство                    : YUV
Субдискретизация насыщенности            : 4:2:0
Битовая глубина                          : 8 бит
Тип развёртки                            : Прогрессивная
Метод сжатия                             : С потерями
Бит/(Пиксели*Кадры)                      : 0.217
Размер потока                            : 1,03 Гбайт (88%)
Библиотека кодирования                   : Lavc56.13.100

Аудио
Идентификатор                            : 1
Формат                                   : MPEG Audio
Версия формата                           : Version 1
Профиль формата                          : Layer 3
Режим                                    : Joint stereo
Идентификатор кодека                     : 55
Идентификатор кодека/Подсказка           : MP3
Продолжительность                        : 1 ч. 38 м.
Вид битрейта                             : Постоянный
Битрейт                                  : 128 Кбит/сек
Каналы                                   : 2 канала
Частота                                  : 48,0 КГц
Метод сжатия                             : С потерями
Размер потока                            : 90,4 Мбайт (8%)
Выравнивание                             : Разделение по промежуткам
Сэмпл

picpicpicpicpic
Для увеличения картинки щелкните мышкой по превью

Этот торрент недоступен для скачивания без регистрации, однако доступен по публичной magnet-ссылке (источники с публичных трекеров). Перед использованием ссылки прочтите, пожалуйста Пользовательское соглашение, а также как можно дольше оставайтесь на раздаче! Для того, чтобы скачать сам торрент-файл (который видит больше источников), а также для того, чтобы поблагодарить релизера, вам необходимо зарегистрироваться. Если регистрироваться лень - вы можете также попробовать скачать релиз по нашим партнерским ссылкам ниже.

[underverse.su].t55543.torrent
Трекер: Зарегистрирован   [ 28.06.2015 13:43 ]  

Статус: проверено (by Ведьмочка at 28.06.2015 13:53)
Поблагодарили: 1 человек
Тип торрента: публичный - доступные источники с открытых трекеров: 
Размер: 1,17 GB (занимает 0,27 DVDR, для записи нужно 1 болванка DVDR/RW)
 
 
Похожие темы
Форум Тема Автор Торрент Отв. Посл. сооб.
Зарубежное кино [DVDRip, Low-Res HDRip, и т.д.] Неизвестная ненависть / Some Kind of Hate (Адам Египет Мортимер) [2015 г., ужасы, HDRip] MVO + Original makkol
0 | 1

0 | 850

16

28.03.2016 23:25

Военные хроники Неизвестная война / The Unknown War [1978 г., документальный, военный, DVDRip] VO sssr32
0 | 0

0 | 1686

3

10.11.2012 15:08

# Исторические фильмы Неизвестная война 1812 года (Алексей Минкин) [2012 г., документальный, TVRip] 90ytr90
2 | 1

0 | 640

11

08.01.2015 14:48

Другие фильмы Неизвестная версия - За двумя зайцами [2009 г., документальный, TVRip] матроскин
0 | 0

1 | 723

2

05.07.2013 15:59

Зарубежное кино [HDDVDRip / BDRip / WEB-DL / HDTV 1080/720р] Неизвестная девушка / Проси меня о чём угодно / Ask Me Anything (Эллисон Бернетт) [2014 г., драма, WEB-DL 720p] VO + Original makkol
9 | 0

0 | 495

15

28.06.2015 13:57


Яндекс.Метрика powered by Sphinx


В Н И М А Н И Е
Сайт не распространяет и не хранит электронные версии произведений, а лишь бесплатно и без коммерческой выгоды (не требуя взамен платы,
SMS и т.д.) предоставляет доступ к создаваемому пользователями каталогу ссылок на торрент-файлы, которые содержат только списки хеш-сумм.
Убедительная просьба с жалобами обращаться напрямую к пользователю, разместившему торрент файл.

Вверх