Loading...
Error

Эффект Скопии / The Scopia Effect (Кристофер Батлер) [2014 г., ужасы, фантастика, триллер, WEB-DLRip] MVO

Статистика раздачи
Размер:  1,38 GB   |    Зарегистрирован:  1 год 5 месяцев   |    Скачан:  14 раз

Полного источника не было: 3 месяца 25 дней

Сидов:  0  |  0 KB/s  ]   Личеров:  0  |  0 KB/s  ]

* - сиды/пиры с внешних источников

   
 
Автор Сообщение

makkol Пол:Муж

28-Июн-2015 12:58

Эффект Скопии / The Scopia Effect
«Death Should Be A Once in a Life Time Experience»


Год выпуска: 2014
Жанр: ужасы, фантастика, триллер
Производство: Великобритания, Big Eye, Flynn Entertainment
Режиссер: Кристофер Батлер
В ролях: Джоанна Игначевска, Луис Лабович, Акира Койеяма, Женевьёв Сибаян, Джессика Джей, Харука Абе, Морган Экерманн, Буки Анифово,з Йозеф Аоки, Энтони Гопол
Сюжет фильма:
Реинкарнация может пойти неправильно и выпустить темные и разрушительные силы. Баша, мать которой погибла в детстве у нее на глазах, нежданно для себя обретает просветление и вспоминает прошлые жизни. Но сможет ли неподготовленный ум девушки справиться с бесконечной чередой смертей своих инкарнаций? Ее прошлые жизни сливаются с настоящим, реальность искажается и превращается в настоящий кошмар, где девушка вынуждена бороться за существование.

Перевод: Olga Martin
Озвучивание: Колобок и VICTORY-FILMS
Роли озвучивали: Камилла Юнусова, Андрей Питерский, Den904, DeadSno

Качество видео: WEB-DLRip

Продолжительность: 01:42:55
Формат: AVI
Видео: XviD, 720x304, 25.000 fps, 1521 kbps
Аудио: русский, любительский многоголосый закадровый, AC3 5.1, 48 kHz, 384 kbps

Код:

Общее
Полное имя                               : The.Scopia.Effect.2014.WEBDLRip.1400mb.avi
Формат                                   : AVI
Формат/Информация                        : Audio Video Interleave
Размер файла                             : 1,38 Гбайт
Продолжительность                        : 1 ч. 42 м.
Общий поток                              : 1915 Кбит/сек
Программа кодирования                    : VirtualDubModRus 1.5.10.2 (build 2542/release)
Библиотека кодирования                   : VirtualDubMod build 2542/release

Видео
Идентификатор                            : 0
Формат                                   : MPEG-4 Visual
Профиль формата                          : Advanced Simple@L5
Параметр BVOP формата                    : 2
Параметр QPel формата                    : Нет
Параметр GMC формата                     : Без точки перехода
Параметр матрицы формата                 : Default (H.263)
Режим смешивания                         : Сжатый битовый поток
Идентификатор кодека                     : XVID
Идентификатор кодека/Подсказка           : XviD
Продолжительность                        : 1 ч. 42 м.
Битрейт                                  : 1521 Кбит/сек
Ширина                                   : 720 пикселей
Высота                                   : 304 пикселя
Соотношение сторон                       : 2,35:1
Частота кадров                           : 25,000 кадров/сек
Цветовое пространство                    : YUV
Субдискретизация насыщенности            : 4:2:0
Битовая глубина                          : 8 бит
Тип развёртки                            : Прогрессивная
Метод сжатия                             : С потерями
Бит/(Пиксели*Кадры)                      : 0.278
Размер потока                            : 1,09 Гбайт (79%)
Библиотека кодирования                   : XviD 66

Аудио
Идентификатор                            : 1
Формат                                   : AC-3
Формат/Информация                        : Audio Coding 3
Расширение режима                        : CM (complete main)
Параметр Endianness формата              : Big
Идентификатор кодека                     : 2000
Продолжительность                        : 1 ч. 42 м.
Вид битрейта                             : Постоянный
Битрейт                                  : 384 Кбит/сек
Каналы                                   : 6 каналов
Расположение каналов                     : Front: L C R, Side: L R, LFE
Частота                                  : 48,0 КГц
Битовая глубина                          : 16 бит
Метод сжатия                             : С потерями
Размер потока                            : 283 Мбайт (20%)
Выравнивание                             : Разделение по промежуткам
Продолжительность промежутка             : 40  мс. (1,00 видеокадр)
Время предзагрузки промежутка            : 500  мс.
Сэмпл

picpicpicpicpic
Для увеличения картинки щелкните мышкой по превью

Этот торрент недоступен для скачивания без регистрации, однако доступен по публичной magnet-ссылке (источники с публичных трекеров). Перед использованием ссылки прочтите, пожалуйста Пользовательское соглашение, а также как можно дольше оставайтесь на раздаче! Для того, чтобы скачать сам торрент-файл (который видит больше источников), а также для того, чтобы поблагодарить релизера, вам необходимо зарегистрироваться. Если регистрироваться лень - вы можете также попробовать скачать релиз по нашим партнерским ссылкам ниже.

[underverse.su].t55541.torrent
Трекер: Зарегистрирован   [ 28.06.2015 12:58 ]  

Статус: проверено (by Ведьмочка at 28.06.2015 13:35)
Поблагодарили: пока никто не поблагодарил...
Тип торрента: публичный - доступные источники с открытых трекеров: 
Размер: 1,38 GB (занимает 0,31 DVDR, для записи нужно 1 болванка DVDR/RW)
 
 
Похожие темы
Форум Тема Автор Торрент Отв. Посл. сооб.
Зарубежное кино [HDDVDRip / BDRip / WEB-DL / HDTV 1080/720р] Эффект Скопии / The Scopia Effect (Кристофер Батлер) [2014 г., ужасы, фантастика, триллер, WEB-DL 720p] MVO + Original makkol
9 | 1

0 | 541

8

28.06.2015 13:19


Яндекс.Метрика powered by Sphinx


В Н И М А Н И Е
Сайт не распространяет и не хранит электронные версии произведений, а лишь бесплатно и без коммерческой выгоды (не требуя взамен платы,
SMS и т.д.) предоставляет доступ к создаваемому пользователями каталогу ссылок на торрент-файлы, которые содержат только списки хеш-сумм.
Убедительная просьба с жалобами обращаться напрямую к пользователю, разместившему торрент файл.

Вверх