Loading...
Error

Крепись! / Get Hard (Этан Коэн) [2015 г., комедия, HDRip] VO

Статистика раздачи
Размер:  1,46 GB   |    Зарегистрирован:  1 год 5 месяцев   |    Скачан:  58 раз

Полного источника не было: 24 дня

Сидов:  0  |  0 KB/s  ]   Личеров:  0  |  0 KB/s  ]

* - сиды/пиры с внешних источников

   
 
Автор Сообщение

makkol Пол:Муж

28-Июн-2015 11:24

Крепись! / Get Hard
«An education in incarceration»


Год выпуска: 2015
Жанр: комедия
Производство: США, Gary Sanchez Productions, Warner Bros. Pictures
Режиссер: Этан Коэн
В ролях: Уилл Феррелл, Кевин Харт, Крэйг Т. Нельсон, Элисон Бри, Эдвина Финдли, Ариана Нил, Эрик Чаварриа, Ти-Ай, Пол Бен-Виктор, Джон Майер
Сюжет фильма:
Фильм «Крепись!» снял режиссер Итан Коэн, который как сценарист хорошо известен по фильмам «Люди в черном 3» и «Солдаты неудачи».
В комедийной ленте «Крепись!» Коэн снял таких прекрасных актеров, как Элисон Бри, Уилл Феррелл, Кевин Харт, Ти Ай и др. Зрителю предстоит увидеть смешную историю миллионера, которому за мошенничество предстоит сесть в тюрьму. Как выжить в преступном мире? Наш герой находит выход – его натаскивает и подготавливает к суровому будущему мойщик его собственной машины.

  • Мировая премьера: 16 марта 2015


Качество видео: HDRip

Продолжительность: 01:40:19
Формат: AVI
Видео: XviD, 720x400, 23.976 fps, 1670 kbps
Аудио: русский, любительский одноголосый закадровый (Lex450), MP3 2.0, 48 kHz, 320 kbps

Внимание: Присутствует ненормативная лексика!

Код:

Общее
Полное имя                               : Kr3p1s.2015.L1.HDRip.1.46GB.avi
Формат                                   : AVI
Формат/Информация                        : Audio Video Interleave
Размер файла                             : 1,46 Гбайт
Продолжительность                        : 1 ч. 40 м.
Общий поток                              : 2081 Кбит/сек
Программа кодирования                    : VirtualDubMod 1.5.10.3 | www.virtualdub-fr.org || (build 2550/release)
Библиотека кодирования                   : VirtualDubMod build 2550/release

Видео
Идентификатор                            : 0
Формат                                   : MPEG-4 Visual
Профиль формата                          : Advanced Simple@L5
Параметр BVOP формата                    : 2
Параметр QPel формата                    : Нет
Параметр GMC формата                     : Без точки перехода
Параметр матрицы формата                 : Выборочная
Режим смешивания                         : Сжатый битовый поток
Идентификатор кодека                     : XVID
Идентификатор кодека/Подсказка           : XviD
Продолжительность                        : 1 ч. 40 м.
Битрейт                                  : 1670 Кбит/сек
Ширина                                   : 720 пикселей
Высота                                   : 400 пикселей
Соотношение сторон                       : 16:9
Частота кадров                           : 23,976 кадра/сек
Цветовое пространство                    : YUV
Субдискретизация насыщенности            : 4:2:0
Битовая глубина                          : 8 бит
Тип развёртки                            : Прогрессивная
Метод сжатия                             : С потерями
Бит/(Пиксели*Кадры)                      : 0.242
Размер потока                            : 1,17 Гбайт (80%)
Библиотека кодирования                   : XviD 1.2.1 (UTC 2008-12-04)

Аудио
Идентификатор                            : 1
Формат                                   : MPEG Audio
Версия формата                           : Version 1
Профиль формата                          : Layer 3
Режим                                    : Joint stereo
Идентификатор кодека                     : 55
Идентификатор кодека/Подсказка           : MP3
Продолжительность                        : 1 ч. 40 м.
Вид битрейта                             : Постоянный
Битрейт                                  : 320 Кбит/сек
Каналы                                   : 2 канала
Частота                                  : 48,0 КГц
Метод сжатия                             : С потерями
Задержка видео                           : 1 с. 584 мс.
Размер потока                            : 230 Мбайт (15%)
Выравнивание                             : Разделение по промежуткам
Библиотека кодирования                   : LAME3.99.5ЄЄЄЄЄЄЄЄЄЄ
picpicpicpicpic
Для увеличения картинки щелкните мышкой по превью

Этот торрент недоступен для скачивания без регистрации, однако доступен по публичной magnet-ссылке (источники с публичных трекеров). Перед использованием ссылки прочтите, пожалуйста Пользовательское соглашение, а также как можно дольше оставайтесь на раздаче! Для того, чтобы скачать сам торрент-файл (который видит больше источников), а также для того, чтобы поблагодарить релизера, вам необходимо зарегистрироваться. Если регистрироваться лень - вы можете также попробовать скачать релиз по нашим партнерским ссылкам ниже.

[underverse.su].t55539.torrent
Трекер: Зарегистрирован   [ 28.06.2015 11:24 ]  

Статус: проверено (by Ведьмочка at 28.06.2015 11:35)
Поблагодарили: пока никто не поблагодарил...
Тип торрента: публичный - доступные источники с открытых трекеров: 
Размер: 1,46 GB (занимает 1/3 DVDR, для записи нужно 1 болванка DVDR/RW)
 
 
Похожие темы
Форум Тема Автор Торрент Отв. Посл. сооб.
Зарубежное кино [HDDVDRip / BDRip / WEB-DL / HDTV 1080/720р] Крепись! / Get Hard (Итэн Коэн) [2015 г., комедия, BDRip 720p] VO (Rus) + (Fre) + Subs (Fre) makkol
11 | 0

0 | 625

18

28.06.2015 11:44


Яндекс.Метрика powered by Sphinx


В Н И М А Н И Е
Сайт не распространяет и не хранит электронные версии произведений, а лишь бесплатно и без коммерческой выгоды (не требуя взамен платы,
SMS и т.д.) предоставляет доступ к создаваемому пользователями каталогу ссылок на торрент-файлы, которые содержат только списки хеш-сумм.
Убедительная просьба с жалобами обращаться напрямую к пользователю, разместившему торрент файл.

Вверх