Loading...
Error

Похищение Фредди Хайнекена / Kidnapping Mr. Heineken (Дэниэл Альфредсон) [2015 г., боевик, триллер, драма, криминальный, HDRip] Dub (Line)

Статистика раздачи
Размер:  1,37 GB   |    Зарегистрирован:  1 год 5 месяцев   |    Скачан:  29 раз

Полного источника не было: 1 день 8 часов

Сидов:  0  |  0 KB/s  ]   Личеров:  0  |  0 KB/s  ]

* - сиды/пиры с внешних источников

   
 
Автор Сообщение

makkol Пол:Муж

27-Июн-2015 10:52

Похищение Фредди Хайнекена / Kidnapping Mr. Heineken
«It was the perfect crime until they got way with it»


Год выпуска: 2015
Жанр: боевик, триллер, драма, криминальный
Производство: Бельгия , Великобритания , Нидерланды (European Film Company, Informant Europe SPRL)
Режиссер: Дэниэл Альфредсон
В ролях: Сэм Уортингтон, Энтони Хопкинс, Джим Стёрджесс, Райан Квантен, Роб Фуллер, Джемайма Уэст, Иоланта Кабау ван Касберген, Давид Денсик, Билли Слотер, Гас Родс
Сюжет фильма:
Осенью 1983 года Амстердам был потрясен одним из самых известных и дерзких преступлений 20 века: владелец одной из крупнейших в мире пивоварен Heineken — Альфред Хайнекен — был похищен вместе с личным шофером прямо из собственного автомобиля. Несколько друзей, которым очень нужны были деньги, решили не мелочиться и заработать много и сразу, похитив одного из самых богатых людей в стране. Проведя тщательную подготовку, свои намерения они осуществили. Преступники требовали у родственников в качестве выкупа сумасшедшую по тем временам сумму — 35 млн. голландских гульденов (около 16 млн. евро). Взамен обещали сохранить жизни обоим.

  • Мировая премьера: 26 февраля 2015
  • Российская премьера: 28 мая 2015


Качество видео: HDRip

Продолжительность: 01:34:44
Формат: AVI
Видео: XviD, 720x304, 23.976 fps, 1935 kbps
Аудио: русский, дублированный (чистый звук), MP3 2.0, 44.1 kHz, 128 kbps

Код:

Общее
Полное имя : p0x1sh4eH1e.FPedd1.2015.D.HDRip.1400Mb.avi
Формат : AVI
Формат/Информация : Audio Video Interleave
Размер файла : 1,37 Гбайт
Продолжительность : 1 ч. 34 м.
Общий поток : 2073 Кбит/сек
Программа кодирования : VirtualDubMod 1.5.10.2 (build 2540/release)
Библиотека кодирования : VirtualDubMod build 2540/release

Видео
Идентификатор : 0
Формат : MPEG-4 Visual
Профиль формата : Advanced Simple@L5
Параметр BVOP формата : 2
Параметр QPel формата : Нет
Параметр GMC формата : Без точки перехода
Параметр матрицы формата : Default (MPEG)
Идентификатор кодека : XVID
Идентификатор кодека/Подсказка : XviD
Продолжительность : 1 ч. 34 м.
Битрейт : 1935 Кбит/сек
Ширина : 720 пикселей
Высота : 304 пикселя
Соотношение сторон : 2,35:1
Частота кадров : 23,976 кадра/сек
Цветовое пространство : YUV
Субдискретизация насыщенности : 4:2:0
Битовая глубина : 8 бит
Тип развёртки : Прогрессивная
Метод сжатия : С потерями
Бит/(Пиксели*Кадры) : 0.369
Размер потока : 1,28 Гбайт (93%)
Библиотека кодирования : XviD 1.2.1 (UTC 2008-12-04)

Аудио
Идентификатор : 1
Формат : MPEG Audio
Версия формата : Version 1
Профиль формата : Layer 3
Идентификатор кодека : 55
Идентификатор кодека/Подсказка : MP3
Продолжительность : 1 ч. 34 м.
Вид битрейта : Постоянный
Битрейт : 128 Кбит/сек
Каналы : 2 канала
Частота : 44,1 КГц
Метод сжатия : С потерями
Размер потока : 86,7 Мбайт (6%)
Выравнивание : Разделение по промежуткам
Продолжительность промежутка : 42 мс. (1,00 видеокадр)
Время предзагрузки промежутка : 500 мс.
Сэмпл

picpicpicpicpic
Для увеличения картинки щелкните мышкой по превью

Этот торрент недоступен для скачивания без регистрации, однако доступен по публичной magnet-ссылке (источники с публичных трекеров). Перед использованием ссылки прочтите, пожалуйста Пользовательское соглашение, а также как можно дольше оставайтесь на раздаче! Для того, чтобы скачать сам торрент-файл (который видит больше источников), а также для того, чтобы поблагодарить релизера, вам необходимо зарегистрироваться. Если регистрироваться лень - вы можете также попробовать скачать релиз по нашим партнерским ссылкам ниже.

[underverse.su].t55528.torrent
Трекер: Зарегистрирован   [ 27.06.2015 10:52 ]  

Статус: T временная (by Ведьмочка at 27.06.2015 11:41)
Поблагодарили: 1 человек
Тип торрента: публичный - доступные источники с открытых трекеров: 
Размер: 1,37 GB (занимает 0,31 DVDR, для записи нужно 1 болванка DVDR/RW)
 
 
Похожие темы
Форум Тема Автор Торрент Отв. Посл. сооб.
Зарубежное кино [DVDRip, Low-Res HDRip, и т.д.] Похищение / Bou ying (Винг-Чеонг Лау) [2011 г., триллер, криминал, HDRip] RG NewCinema
1 | 0

0 | 459

10

14.09.2012 13:03

Зарубежное кино [DVDRip, Low-Res HDRip, и т.д.] Похищение Хайнекена / De Heineken ontvoering (Маартен Треёньет) [2011 г., триллер, криминал, история, DVDRip] VO [den904] RG NewCinema
7 | 0

0 | 1004

18

14.11.2012 08:32

Зарубежное кино [DVDRip, Low-Res HDRip, и т.д.] Похищение Фредди Хайнекена / Kidnapping Mr. Heineken (Дэниэл Альфредсон / Daniel Alfredson) [2015 г., боевик, триллер, драма, криминал, WEB-DLRip] DVO (Sunny-Films) + Original (Eng) 90ytr90
0 | 0

0 | 1039

46

08.03.2015 19:45

Зарубежное кино [DVDRip, Low-Res HDRip, и т.д.] Похищение Фредди Хайнекена / Kidnapping Mr. Heineken (Дэниэл Альфредсон) [2015 г., боевик, триллер, драма, криминал, HDRip] DVO (Сладкая парочка) Паукан
1 | 0

0 | 464

21

31.03.2015 13:59

Зарубежное кино [DVDRip, Low-Res HDRip, и т.д.] Похищение Фредди Хайнекена / Kidnapping Mr. Heineken (Дэниэл Альфредсон) [2015 г., боевик, триллер, драма, криминальный, HDRip] Dub makkol
1 | 0

0 | 335

16

29.06.2015 22:42

Кино СССР Похищение «Савойи» (Вениамин Дорман) [1979 г., приключения, семейный, DVDRip] 90ytr90
2 | 0

0 | 1616

9

27.10.2013 15:20

xUSSR сериалы Похищение Богини / Серии: 1-8 из 8 (Александр Березань) [2010 г., детектив, DVDRip] konopic
1 | 0

0 | 1681

13

10.12.2013 16:26

T Зарубежное кино [HDDVDRip / BDRip / WEB-DL / HDTV 1080/720р] Похищение Фредди Хайнекена / Kidnapping Mr. Heineken (Дэниэл Альфредсон) [2015 г., боевик, триллер, драма, криминальный, BDRip 720p] Dub (Line) + Original makkol
18 | 0

0 | 405

12

27.06.2015 11:03

Зарубежное кино [HDDVDRip / BDRip / WEB-DL / HDTV 1080/720р] Похищение Фредди Хайнекена / Kidnapping Mr. Heineken (Дэниэл Альфредсон) [2015 г., боевик, триллер, драма, криминальный, BDRip 1080p] Dub + Original + Subs makkol
5 | 0

0 | 338

6

29.06.2015 23:06

* Архив Похищение отца (ТВ) / Dadnapped (Пол Хоэн) [2009 г., боевик, комедия, приключения, ] LAMA

1 | 679

29.08.2010 23:52


Яндекс.Метрика powered by Sphinx


В Н И М А Н И Е
Сайт не распространяет и не хранит электронные версии произведений, а лишь бесплатно и без коммерческой выгоды (не требуя взамен платы,
SMS и т.д.) предоставляет доступ к создаваемому пользователями каталогу ссылок на торрент-файлы, которые содержат только списки хеш-сумм.
Убедительная просьба с жалобами обращаться напрямую к пользователю, разместившему торрент файл.

Вверх