Loading...
Error

Джулия / Julia (Der Liebesschuler) (Зиги Ротемунд) [1974 г., драма, эротика, DVDRip] MVO

Статистика раздачи
Размер:  1,46 GB   |    Зарегистрирован:  1 год 5 месяцев   |    Скачан:  15 раз

Полного источника не было: 6 дней

Сидов:  0  |  0 KB/s  ]   Личеров:  0  |  0 KB/s  ]

* - сиды/пиры с внешних источников

   
 
Автор Сообщение

makkol Пол:Муж

26-Июн-2015 23:27

Джулия / Julia (Der Liebesschüler)
«If you liked her as 'Emmanuelle' you'll love her as... Julia»


Год выпуска: 1974
Жанр: драма, эротика
Производство: Германия [Lisa-Film]
Режиссер: Зиги Ротемунд
В ролях: Сильвия Кристель, Жан-Клод Буллон, Тери Тордаи, Гизела Хан, Эккехардт Белле, Петер Берлинг, Роуз Рени Рот, Доминик Дельпьерр, Кристин Гласнер, Майкл Тиц, Манфред Шпиз
Сюжет фильма:
Этот фильм перекликаеться с известной эротической мелодрамой "Греческая смоковница". Молодая студентка Джулия во время отдыха в Швейцарских Альпах встречает такого же молодого юношу Патрика. В порывах страстей, они поддаются взаимному увлечению, которое перерастает в нечто большее. Все попытки остановить их оказываются безрезультатными, любви нельзя помешать.

  • Мировая премьера: 13 сентября 1974


Качество видео: DVDRip

Продолжительность: 01:24:29
Формат: AVI
Видео: XviD, 704x464, 25.000 fps, 2274 kbps
Аудио: русский, профессиональный многоголосый закадровый, AC3 2.0, 48.0 kHz, 192 kbps

Код:

Общее
Полное имя : Juliya.avi
Формат : AVI
Формат/Информация : Audio Video Interleave
Размер файла : 1,46 Гбайт
Продолжительность : 1 ч. 24 м.
Общий поток : 2475 Кбит/сек
Программа кодирования : VirtualDubMod 1.5.10.2 (build 2540/release)
Библиотека кодирования : VirtualDubMod build 2540/release

Видео
Идентификатор : 0
Формат : MPEG-4 Visual
Профиль формата : Advanced Simple@L5
Параметр BVOP формата : 1
Параметр QPel формата : Нет
Параметр GMC формата : Без точки перехода
Параметр матрицы формата : Default (MPEG)
Идентификатор кодека : XVID
Идентификатор кодека/Подсказка : XviD
Продолжительность : 1 ч. 24 м.
Битрейт : 2274 Кбит/сек
Ширина : 704 пикселя
Высота : 464 пикселя
Соотношение сторон : 3:2
Частота кадров : 25,000 кадров/сек
Цветовое пространство : YUV
Субдискретизация насыщенности : 4:2:0
Битовая глубина : 8 бит
Тип развёртки : Прогрессивная
Метод сжатия : С потерями
Бит/(Пиксели*Кадры) : 0.278
Размер потока : 1,34 Гбайт (92%)
Библиотека кодирования : XviD 58

Аудио
Идентификатор : 1
Формат : AC-3
Формат/Информация : Audio Coding 3
Расширение режима : CM (complete main)
Параметр Endianness формата : Big
Идентификатор кодека : 2000
Продолжительность : 1 ч. 24 м.
Вид битрейта : Постоянный
Битрейт : 192 Кбит/сек
Каналы : 2 канала
Расположение каналов : Front: L R
Частота : 48,0 КГц
Битовая глубина : 16 бит
Метод сжатия : С потерями
Размер потока : 116 Мбайт (8%)
Выравнивание : Разделение по промежуткам
Продолжительность промежутка : 40 мс. (1,00 видеокадр)
Время предзагрузки промежутка : 500 мс.

picpicpicpicpic
Для увеличения картинки щелкните мышкой по превью

Этот торрент недоступен для скачивания без регистрации, однако доступен по публичной magnet-ссылке (источники с публичных трекеров). Перед использованием ссылки прочтите, пожалуйста Пользовательское соглашение, а также как можно дольше оставайтесь на раздаче! Для того, чтобы скачать сам торрент-файл (который видит больше источников), а также для того, чтобы поблагодарить релизера, вам необходимо зарегистрироваться. Если регистрироваться лень - вы можете также попробовать скачать релиз по нашим партнерским ссылкам ниже.

[underverse.su].t55527.torrent
Трекер: Зарегистрирован   [ 26.06.2015 23:27 ]  

Статус: проверено (by Ведьмочка at 27.06.2015 11:42)
Поблагодарили: 1 человек
Тип торрента: публичный - доступные источники с открытых трекеров: 
Размер: 1,46 GB (занимает 0,33 DVDR, для записи нужно 1 болванка DVDR/RW)
 
 
Похожие темы
Форум Тема Автор Торрент Отв. Посл. сооб.
Зарубежное кино [DVDRip, Low-Res HDRip, и т.д.] Джулия / Julia (Мэттью А. Браун) [2014 г., Ужасы, Триллер, HDRip] DVO (RUS, Влад & Снежинка) Ведьмочка
1 | 0

0 | 606

14

05.03.2015 08:45

Зарубежное кино [HDDVDRip / BDRip / WEB-DL / HDTV 1080/720р] Джулия / Julia (Мэттью А. Браун) [2014 г., Ужасы, Триллер, BDRip 720p] DVO (RUS, Влад & Снежинка) + Original (ENG) Ведьмочка
1 | 0

0 | 674

10

06.03.2015 11:44


Яндекс.Метрика powered by Sphinx


В Н И М А Н И Е
Сайт не распространяет и не хранит электронные версии произведений, а лишь бесплатно и без коммерческой выгоды (не требуя взамен платы,
SMS и т.д.) предоставляет доступ к создаваемому пользователями каталогу ссылок на торрент-файлы, которые содержат только списки хеш-сумм.
Убедительная просьба с жалобами обращаться напрямую к пользователю, разместившему торрент файл.

Вверх