Loading...
Error

Вне времени / The Lovers (Роланд Жоффе) [2015 г., фантастика, боевик, мелодрама, приключения, HDRip] Dub

Статистика раздачи
Размер:  1,37 GB   |    Зарегистрирован:  1 год 5 месяцев   |    Скачан:  45 раз
Сидов:  1  |  0 KB/s  ]   Личеров:  0  |  0 KB/s  ]

* - сиды/пиры с внешних источников

   
 
Автор Сообщение

makkol Пол:Муж

26-Июн-2015 13:36

Вне времени / The Lovers
«Жизнь достойна борьбы, любовь достойна смерти»


Год выпуска: 2015
Жанр: фантастика, боевик, мелодрама, приключения
Производство: Бельгия , Индия , Австралия (Bliss Media, Corsan, Limelight International Media Entertainment, Neelmudra Entertainment)
Режиссер: Роланд Жоффе
В ролях: Джош Хартнетт, Тэмзин Эджертон, Элис Энглерт, Клер ван дер Бом, Махеш Джаду, Ом Пури, Симона Кэссел, Темина Санни, Бипаша Басу, Андреа Дэк
Сюжет фильма:
Это история о храбрости и великой силе любви. Археолог-подводник Джей Финнел вместе с женой исследует затонувшее торговое судно XVIII века. Однажды, пытаясь спасти супругу, он получает опасное ранение и впадает в кому. Борясь со смертью, герой переступает грань реальности и переносится в Индию 1778 года, где начинает жить жизнью британского офицера Джеймса Стюарта, поглощенного страстью к прекрасной воительнице Туладже.

  • Мировая премьера: 25 октября 2013
  • Российская премьера: 28 мая 2015


Качество видео: HDRip

Продолжительность: 01:49:20
Формат: AVI
Видео: XviD, 720x304, 23.976 fps, 1397 kbps
Аудио: русский, дублированный (iTunes), AC3 5.1, 48.0 kHz, 384 kbps

Код:

Общее
Полное имя : BHe.BPemeH1.2015.D.HDRip.1400Mb.avi
Формат : AVI
Формат/Информация : Audio Video Interleave
Размер файла : 1,37 Гбайт
Продолжительность : 1 ч. 49 м.
Общий поток : 1791 Кбит/сек
Программа кодирования : VirtualDubMod 1.5.10.2 (build 2540/release)
Библиотека кодирования : VirtualDubMod build 2540/release

Видео
Идентификатор : 0
Формат : MPEG-4 Visual
Профиль формата : Advanced Simple@L5
Параметр BVOP формата : 2
Параметр QPel формата : Нет
Параметр GMC формата : Без точки перехода
Параметр матрицы формата : Default (MPEG)
Идентификатор кодека : XVID
Идентификатор кодека/Подсказка : XviD
Продолжительность : 1 ч. 49 м.
Битрейт : 1397 Кбит/сек
Ширина : 720 пикселей
Высота : 304 пикселя
Соотношение сторон : 2,35:1
Частота кадров : 23,976 кадра/сек
Цветовое пространство : YUV
Субдискретизация насыщенности : 4:2:0
Битовая глубина : 8 бит
Тип развёртки : Прогрессивная
Метод сжатия : С потерями
Бит/(Пиксели*Кадры) : 0.266
Размер потока : 1,07 Гбайт (78%)
Библиотека кодирования : XviD 1.2.1 (UTC 2008-12-04)

Аудио
Идентификатор : 1
Формат : AC-3
Формат/Информация : Audio Coding 3
Расширение режима : CM (complete main)
Параметр Endianness формата : Big
Идентификатор кодека : 2000
Продолжительность : 1 ч. 49 м.
Вид битрейта : Постоянный
Битрейт : 384 Кбит/сек
Каналы : 6 каналов
Расположение каналов : Front: L C R, Side: L R, LFE
Частота : 48,0 КГц
Битовая глубина : 16 бит
Метод сжатия : С потерями
Размер потока : 301 Мбайт (21%)
Выравнивание : Разделение по промежуткам
Продолжительность промежутка : 42 мс. (1,00 видеокадр)
Время предзагрузки промежутка : 500 мс.
Сэмпл

picpicpicpicpic
Для увеличения картинки щелкните мышкой по превью

Этот торрент недоступен для скачивания без регистрации, однако доступен по публичной magnet-ссылке (источники с публичных трекеров). Перед использованием ссылки прочтите, пожалуйста Пользовательское соглашение, а также как можно дольше оставайтесь на раздаче! Для того, чтобы скачать сам торрент-файл (который видит больше источников), а также для того, чтобы поблагодарить релизера, вам необходимо зарегистрироваться. Если регистрироваться лень - вы можете также попробовать скачать релиз по нашим партнерским ссылкам ниже.

[underverse.su].t55518.torrent
Трекер: Зарегистрирован   [ 26.06.2015 13:36 ]  

Статус: T временная (by Ведьмочка at 28.06.2015 11:43)
Поблагодарили: 2 человека
Тип торрента: публичный - доступные источники с открытых трекеров: 
Размер: 1,37 GB (занимает 0,31 DVDR, для записи нужно 1 болванка DVDR/RW)
 
 
Похожие темы
Форум Тема Автор Торрент Отв. Посл. сооб.
Зарубежное кино [DVDRip, Low-Res HDRip, и т.д.] Вне времени / Out Of Time (Карл Франклин / Carl Franklin) [2003 г., tриллер, драма, криминал, BDRip] [Ger-Transfer] Dub + Original (Eng) + Sub (Rus, Eng) 90ytr90
1 | 0

0 | 553

6

26.01.2014 12:28

Зарубежное кино [DVDRip, Low-Res HDRip, и т.д.] Вне времени / The Lovers (Роланд Жоффе) [2015 г., фантастика, боевик, мелодрама, приключения, WEB-DLRip] MVO (ICG) + Original (Eng) 90ytr90
1 | 0

0 | 835

20

20.02.2015 20:30

Зарубежное кино [DVDRip, Low-Res HDRip, и т.д.] Вне времени / The Lovers (Роланд Жоффе) [2015 г., фантастика, боевик, мелодрама, приключения, WEB-DLRip-AVC] MVO (ICG) + Original (Eng) + Sub (Eng) 90ytr90
26 | 0

0 | 846

16

21.02.2015 08:17

Зарубежное кино [HDDVDRip / BDRip / WEB-DL / HDTV 1080/720р] Вне времени / The Lovers (Роланд Жоффе) [2015 г., фантастика, боевик, мелодрама, приключения, WEB-DL 720p] MVO (ICG) + Original (Eng) + Sub (Eng) 90ytr90
115 | 0

0 | 806

22

20.02.2015 21:30

T Зарубежное кино [HDDVDRip / BDRip / WEB-DL / HDTV 1080/720р] Вне времени / The Lovers (Роланд Жоффе) [2015 г., фантастика, боевик, мелодрама, приключения, BDRip 720p] Dub + Original makkol
7 | 0

0 | 504

16

26.06.2015 13:45

T Зарубежное кино [HDDVDRip / BDRip / WEB-DL / HDTV 1080/720р] Вне времени / The Lovers (Роланд Жоффе) [2015 г., фантастика, боевик, мелодрама, приключения, BDRip 1080p] Dub + Original makkol
0 | 0

0 | 535

14

26.06.2015 13:55

Релизы Вне времени Потерянный город Коллекционное издание / Timeless The Forgotten Town Collector's Edition [2013 г., Квест Поиск предметов] RUS [P] Станислав Карбанович
1 | 0

1 | 1234

21

17.11.2013 18:05

Proletaeva Пол:Жен

04-Июл-2015 16:43

Такой пустой и сладкий фильм , что аж на зубах скрепит сахар.

Яндекс.Метрика powered by Sphinx


В Н И М А Н И Е
Сайт не распространяет и не хранит электронные версии произведений, а лишь бесплатно и без коммерческой выгоды (не требуя взамен платы,
SMS и т.д.) предоставляет доступ к создаваемому пользователями каталогу ссылок на торрент-файлы, которые содержат только списки хеш-сумм.
Убедительная просьба с жалобами обращаться напрямую к пользователю, разместившему торрент файл.

Вверх