Loading...
Error

Большая игра / Big Game (Ялмари Хеландер) [2014 г., боевик, приключения, WEB-DLRip] Dub

Статистика раздачи
Размер:  1,37 GB   |    Зарегистрирован:  1 год 5 месяцев   |    Скачан:  43 раза

Полного источника не было: 28 дней

Сидов:  0  |  0 KB/s  ]   Личеров:  0  |  0 KB/s  ]

* - сиды/пиры с внешних источников

   
 
Автор Сообщение

makkol Пол:Муж

25-Июн-2015 23:30

Большая игра / Big Game
«Бардак Обмана»


Год выпуска: 2014
Жанр: боевик, приключения
Производство: Финляндия , Великобритания , Германия (Subzero Film Entertainment, Altitude Film Entertainment, Egoli Tossell Film)
Режиссер: Ялмари Хеландер
В ролях: Сэмюэл Л. Джексон, Онни Томмила, Рэй Стивенсон, Виктор Гарбер, Мехмет Куртулус, Тед Левайн, Йорма Томмила, Ристо Сэлми, Фелисити Хаффман, Джим Бродбент
Сюжет фильма:
История робкого подростка по имени Оскари. Как и его прадеды, согласно традициям, мальчик должен провести один день и одну ночь в непроходимой глуши. Вооружённый только луком и стрелами, он должен вернуться с добычей, которая ознаменует его становление как мужчины. Кто бы мог подумать, что такой добычей станет президент США! Вот так судьба одного из самых влиятельных людей во всем мире оказывается в руках подростка. Вовлеченные в смертельно опасную, но от этого не менее смешную игру в «кошки-мышки», имея всего несколько часов форы — Оскари и Президент США должны сплотиться, чтобы пережить самую необычную ночь в своей жизни.

  • Мировая премьера: 5 сентября 2014
  • Российская премьера: 16 апреля 2015


Качество видео: WEB-DLRip

Продолжительность: 01:30:23
Формат: AVI
Видео: XviD, 720x304, 24.000 fps, 1771 kbps
Аудио: русский, дублированный (iTunes), AC3 5.1, 48.0 kHz, 384 kbps

Код:

General
Complete name : Bolshaya.Igra.2014.D.WEB-DLRip.1400MB.avi
Format : AVI
Format/Info : Audio Video Interleave
File size : 1.37 GiB
Duration : 1h 30mn
Overall bit rate : 2 164 Kbps
Writing application : VirtualDubMod 1.5.10.3 | www.virtualdub-fr.org || (build 2550/release)
Writing library : VirtualDubMod build 2550/release

Video
ID : 0
Format : MPEG-4 Visual
Format profile : Advanced Simple@L5
Format settings, BVOP : 2
Format settings, QPel : No
Format settings, GMC : No warppoints
Format settings, Matrix : Default (MPEG)
Codec ID : XVID
Codec ID/Hint : XviD
Duration : 1h 30mn
Bit rate : 1 771 Kbps
Width : 720 pixels
Height : 304 pixels
Display aspect ratio : 2.35:1
Frame rate : 24.000 fps
Color space : YUV
Chroma subsampling : 4:2:0
Bit depth : 8 bits
Scan type : Progressive
Compression mode : Lossy
Bits/(Pixel*Frame) : 0.337
Stream size : 1.12 GiB (82%)
Writing library : XviD 1.2.1 (UTC 2008-12-04)

Audio
ID : 1
Format : AC-3
Format/Info : Audio Coding 3
Mode extension : CM (complete main)
Format settings, Endianness : Big
Codec ID : 2000
Duration : 1h 30mn
Bit rate mode : Constant
Bit rate : 384 Kbps
Channel(s) : 6 channels
Channel positions : Front: L C R, Side: L R, LFE
Sampling rate : 48.0 KHz
Compression mode : Lossy
Stream size : 248 MiB (18%)
Alignment : Split accross interleaves
Interleave, duration : 42 ms (1.00 video frame)
Interleave, preload duration : 500 ms
Сэмпл

picpicpicpicpic
Для увеличения картинки щелкните мышкой по превью

Этот торрент недоступен для скачивания без регистрации, однако доступен по публичной magnet-ссылке (источники с публичных трекеров). Перед использованием ссылки прочтите, пожалуйста Пользовательское соглашение, а также как можно дольше оставайтесь на раздаче! Для того, чтобы скачать сам торрент-файл (который видит больше источников), а также для того, чтобы поблагодарить релизера, вам необходимо зарегистрироваться. Если регистрироваться лень - вы можете также попробовать скачать релиз по нашим партнерским ссылкам ниже.

[underverse.su].t55513.torrent
Трекер: Зарегистрирован   [ 25.06.2015 23:30 ]  

Статус: T временная (by Ведьмочка at 28.06.2015 11:46)
Поблагодарили: 1 человек
Тип торрента: публичный - доступные источники с открытых трекеров: 
Размер: 1,37 GB (занимает 0,31 DVDR, для записи нужно 1 болванка DVDR/RW)
 
 
Похожие темы
Форум Тема Автор Торрент Отв. Посл. сооб.
Зарубежное кино [DVDRip, Low-Res HDRip, и т.д.] Большая игра / Suurriistaa / Big Game (Ялмари Хеландер) [2014 г., боевик, приключения, WEBRip] DVO makkol
6 | 0

0 | 886

66

01.06.2015 23:27

T Зарубежное кино [DVDRip, Low-Res HDRip, и т.д.] Большая игра / Big Game (Ялмари Хеландер) [2014 г., боевик, приключения, HDRip] Dub makkol
39 | 2

0 | 554

31

21.07.2015 23:17

T Зарубежное кино [DVDRip, Low-Res HDRip, и т.д.] Большая игра / Big Game (Ялмари Хеландер / Jalmari Helander) [2014 г., боевик, приключения, BDRip-AVC] Dub (iTunes) + Sub (Rus) 90ytr90
34 | 0

0 | 503

16

31.01.2016 13:44

T Зарубежное кино [DVDRip, Low-Res HDRip, и т.д.] Большая игра / Big Game (Ялмари Хеландер / Jalmari Helander) [2014 г., боевик, приключения, BDRip-AVC] Dub (iTunes) + Original (Eng) + Sub (Rus, Eng) 90ytr90
31 | 1

0 | 572

14

31.01.2016 13:51

Зарубежное кино [HDDVDRip / BDRip / WEB-DL / HDTV 1080/720р] Большая игра / State of Play (Кевин МакДональд) [2009 г., Драма, Детектив, BDRip 720p] Dub (Rus) + Original (Eng) + Subs (Rus, Eng) Ведьмочка
3 | 0

0 | 857

10

09.07.2014 13:13

T Зарубежное кино [HDDVDRip / BDRip / WEB-DL / HDTV 1080/720р] Большая игра / Big Game (Ялмари Хеландер) [2014 г., боевик, приключения, WEB-DL 1080p] Dub makkol
56 | 1

0 | 495

31

26.06.2015 00:03

T Зарубежное кино [HDDVDRip / BDRip / WEB-DL / HDTV 1080/720р] Большая игра / Big Game (Ялмари Хеландер) [2014 г., боевик, приключения, BDRip 720p] Dub + Original makkol
23 | 1

0 | 389

15

21.07.2015 23:35

T Зарубежное кино [HDDVDRip / BDRip / WEB-DL / HDTV 1080/720р] Большая игра / Big Game (Ялмари Хеландер) [2014 г., боевик, приключения, BDRip 1080p] Dub + Original + Subs (Eng) makkol
14 | 1

0 | 456

18

22.07.2015 23:07

* Архив Большая игра / State of Play (Кевин МакДональд) [2009 г., триллер, драма, криминал, детектив, HD DVDRip] bokalchik

3 | 2160

29.08.2010 23:52

Архив Большая игра / State of Play (Кевин МакДональд) [2009 г., триллер, драма, детектив, BDRip] GUree
0 | 0

1 | 1602

1

05.11.2011 14:45


Яндекс.Метрика powered by Sphinx


В Н И М А Н И Е
Сайт не распространяет и не хранит электронные версии произведений, а лишь бесплатно и без коммерческой выгоды (не требуя взамен платы,
SMS и т.д.) предоставляет доступ к создаваемому пользователями каталогу ссылок на торрент-файлы, которые содержат только списки хеш-сумм.
Убедительная просьба с жалобами обращаться напрямую к пользователю, разместившему торрент файл.

Вверх